Вас Приветствует Релиз-группа HQCLUB


Помощь ресурсу, очень ВАЖНО!!!



.


WELCOME
Добро пожаловать в наше интернет - сообщество!

Всех нас объединяет одна страсть - страсть к высококачественному кино. А это наш сайт. Ежедневно здесь мы публикуем десятки качественных, свежих, а порой и эксклюзивных релизов, которые Вы можете скачать совершенно бесплатно и без каких-либо регистраций. Посему рекомендуем Вам добавить HQClub себе в закладки, а также подписаться на нашу ленту новостей, чтобы всегда быть в курсе всех событий. Ну а если Вы такой же синий фил, как и мы, то милости просим на наш форум. И в заключение, попробуйте зарегистрироваться, ведь не так это и сложно и займет всего лишь пару минут! Вот увидите, Вам у нас понравится и Вы вольетесь в наш дружный коллектив! Ну а пока - осматривайтесь = )
Мы рады Вам !





Запрещённый приём / Sucker Punch [Extended Cut] (2011) 720p BDRip

Оформил: DaniLch | 23 августа 2011 - 17:43:29 | Комментариев: 3 | Обращений: 3711 {bookmarks_news}

http//lostpic.net/images/958e8d6ea67eebfd050aaaf5dfdff322.png

Название: Запрещённый приём
Оригинальное название: Sucker Punch
Год выхода: 2011
Жанр: боевик, приключения, фэнтези, триллер
Режиссер: Зак Снайдер / Zack Snyder
В ролях: Эмили Браунинг, Эбби Корниш, Джена Мэлоун, Ванесса Энн Хадженс, Джеми Чунг, Карла Гуджино, Оскар Айзек, Джон Хэмм, Скотт Гленн, Ричард Цетрон

О фильме: Действие развернется в 1950 году. Молодую девушку по настоянию ее злодейского отчима определяют в больницу для душевнобольных, где спустя пять дней главную героиню лоботомируют. Чтобы оградиться от боли, она выдумывает сказочный мир, где и начинает планировать свой побег — для этого ей нужно раздобыть пять предметов.

http//www.kinopoisk.ru/rating/429827.gif

Релиз от - http//hqclub.net/images/hqclub.png
Автор релиза: DaniLch

Выпущено: http//lostpic.net/images/ac5cb4a618da65239cf7be53b9ab78.gif США http//lostpic.net/images/95c9723f15526cbde135d319d047a5e8.gif Канада | Warner Bros. Pictures, Legendary Pictures
Продолжительность: 02:07:30

Рип от CHD

Контейнер: MKV
Видео: 1280x534 (2.40:1), 23.976 fps, x264@L4.1, 2pass, ~5827 kbps
Аудио #1: Russian: 48 kHz/24-bit, DTS, 3/2 (L,C,R,l,r) + LFE ch, ~1510 kbps |Двухголосый закадровый, Кубик в Кубе|
Аудио #2: Russian: 48 kHz/24-bit, DTS, 3/2 (L,C,R,l,r) + LFE ch, ~1510 kbps |Одноголосый закадровый, acolith|
Аудио #3: English: 48 kHz/24-bit, DTS, 3/2 (L,C,R,l,r) + LFE ch, ~1510 kbps
Субтитры: русские @ voronine, русские @ Doctor_Joker, английские
Размер: 9.22 Gb

http//lostpic.net/thumbs/87d083e9ff3b66a3bd4153cb71a3397f.png http//lostpic.net/thumbs/e6e4a5379259593ab786a42e6d3d283f.png http//lostpic.net/thumbs/c094b4f5ef889ebf0456fe40e84365c7.png http//lostpic.net/thumbs/505d373ab5c83379a90f102f7ff0891e.png

http//bt.hqclub.net/files/ok.png Торрент: Запрещённый приём / Sucker Punch [Extended Cut] (2011) 720p BDRip

MediaInfo
General
Complete name : Sucker.Punch.Extended.Cut.2011.BDRip.720p.H264.DTS.-HQCLUB.mkv
Format : Matroska
File size : 9.22 GiB
Duration : 2h 7mn
Overall bit rate : 10.4 Mbps
Movie name : Sucker.Punch.Extended.Cut.2011.720p.BluRay.x264.DTS-CHD
Encoded date : UTC 2011-08-19 15:01:40
Writing application : mkvmerge v4.9.1 ('Ich will') built on Jul 11 2011 23:53:15
Writing library : libebml v1.2.1 + libmatroska v1.1.1

Video
ID : 1
Format : AVC
Format/Info : Advanced Video Codec
Format profile : High@L4.1
Format settings, CABAC : Yes
Format settings, ReFrames : 12 frames
Codec ID : V_MPEG4/ISO/AVC
Duration : 2h 7mn
Bit rate : 5 827 Kbps
Width : 1 280 pixels
Height : 534 pixels
Display aspect ratio : 2.35:1
Frame rate : 23.976 fps
Color space : YUV
Chroma subsampling : 4:2:0
Bit depth : 8 bits
Scan type : Progressive
Bits/(Pixel*Frame) : 0.356
Stream size : 5.01 GiB (54%)
Title : Sucker Punch [Extended Cut] (2011) 720p BDRip
Writing library : x264 core 115 r1947+532 361db68
Encoding settings : cabac=1 / ref=12 / deblock=1:-3:-3 / analyse=0x3:0x113 / me=umh / subme=10 / psy=1 / fade_compensate=0.00 / psy_rd=1.05:0.10 / mixed_ref=1 / me_range=48 / chroma_me=1 / trellis=2 / 8x8dct=1 / cqm=2 / deadzone=21,11 / fast_pskip=0 / chroma_qp_offset=-2 / threads=12 / sliced_threads=0 / nr=0 / decimate=1 / interlaced=0 / bluray_compat=0 / constrained_intra=0 / fgo=0 / bframes=6 / b_pyramid=2 / b_adapt=2 / b_bias=0 / direct=3 / weightb=1 / open_gop=0 / weightp=2 / keyint=250 / keyint_min=23 / scenecut=40 / intra_refresh=0 / rc_lookahead=40 / rc=2pass / mbtree=1 / bitrate=5827 / ratetol=1.0 / qcomp=0.60 / qpmin=1 / qpmax=63 / qpstep=4 / cplxblur=20.0 / qblur=0.5 / vbv_maxrate=40000 / vbv_bufsize=30000 / nal_hrd=none / ip_ratio=1.40 / aq=2:0.70
Language : English

Audio #1
ID : 2
Format : DTS
Format/Info : Digital Theater Systems
Codec ID : A_DTS
Duration : 2h 7mn
Bit rate mode : Constant
Bit rate : 1 510 Kbps
Channel(s) : 6 channels
Channel positions : Front: L C R, Side: L R, LFE
Sampling rate : 48.0 KHz
Bit depth : 24 bits
Compression mode : Lossy
Stream size : 1.34 GiB (15%)
Title : DTS 5.1 @ 1510 kbps - Двухголосый закадровый, Кубик в Кубе
Language : Russian

Audio #2
ID : 3
Format : DTS
Format/Info : Digital Theater Systems
Codec ID : A_DTS
Duration : 2h 7mn
Bit rate mode : Constant
Bit rate : 1 510 Kbps
Channel(s) : 6 channels
Channel positions : Front: L C R, Side: L R, LFE
Sampling rate : 48.0 KHz
Bit depth : 24 bits
Compression mode : Lossy
Stream size : 1.34 GiB (15%)
Title : DTS 5.1 @ 1510 kbps - Одноголосый закадровый, acolith
Language : Russian

Audio #3
ID : 4
Format : DTS
Format/Info : Digital Theater Systems
Codec ID : A_DTS
Duration : 2h 7mn
Bit rate mode : Constant
Bit rate : 1 510 Kbps
Channel(s) : 6 channels
Channel positions : Front: L C R, Side: L R, LFE
Sampling rate : 48.0 KHz
Bit depth : 24 bits
Compression mode : Lossy
Stream size : 1.34 GiB (15%)
Title : DTS 5.1 @ 1510 kbps
Language : English

Text #1
ID : 5
Format : UTF-8
Codec ID : S_TEXT/UTF8
Codec ID/Info : UTF-8 Plain Text
Title : Voronine
Language : Russian

Text #2
ID : 6
Format : UTF-8
Codec ID : S_TEXT/UTF8
Codec ID/Info : UTF-8 Plain Text
Title : Doctor_Joker
Language : Russian

Text #3
ID : 7
Format : UTF-8
Codec ID : S_TEXT/UTF8
Codec ID/Info : UTF-8 Plain Text
Language : English

Menu
00:00:00.000 : en:00:00:00.000
00:05:59.985 : en:00:05:59.985
00:12:25.703 : en:00:12:25.703
00:24:59.456 : en:00:24:59.456
00:36:15.590 : en:00:36:15.590
00:42:35.720 : en:00:42:35.720
00:57:42.501 : en:00:57:42.501
01:01:29.936 : en:01:01:29.936
01:21:13.118 : en:01:21:13.118
01:37:03.526 : en:01:37:03.526
01:53:19.543 : en:01:53:19.543
02:01:45.757 : en:02:01:45.757

Цитата:
- За дорожку #1 спасибо oftoprop и Slimka.
- Дорожка #2 получена микшированием чистого голоса с центральным каналом оригинала.


Лучшая онлайн игра!


Публикация материалов сайта на сторонних ресурсах возможна только в неизменном виде.


Обсудить релиз на форуме

Вас также может заинтересовать:


  • 3
 (Голосов: 25)


Распечатать новость на принтере Боевик, Приключения, Фэнтези, Триллер
Обновлено: 25.08.2011 - 14:59

КОММЕНТАРИИ

 №1. Kengie

Статус: Стажер | Новостей: 0 | Комментариев: 52
Kengie самое большое разочарование года!
~~~

24.08.2011 - 00:44   цитировать  

 №2. Marshall Mathers

Статус: Кинокритик | Новостей: 0 | Комментариев: 468
Marshall Mathers Kengie, для меня наоборот! Суперский фильм! Поучительный!
~~~

24.08.2011 - 23:01   цитировать  

 №3. condate

Статус: Новичок | Новостей: 0 | Комментариев: 3
condate bw самое интересное чему он поучает. +1 к комментарию Kengie
~~~

25.12.2011 - 21:58   цитировать