Вас Приветствует Релиз-группа HQCLUB


Помощь ресурсу, очень ВАЖНО!!!



.


WELCOME
Добро пожаловать в наше интернет - сообщество!

Всех нас объединяет одна страсть - страсть к высококачественному кино. А это наш сайт. Ежедневно здесь мы публикуем десятки качественных, свежих, а порой и эксклюзивных релизов, которые Вы можете скачать совершенно бесплатно и без каких-либо регистраций. Посему рекомендуем Вам добавить HQClub себе в закладки, а также подписаться на нашу ленту новостей, чтобы всегда быть в курсе всех событий. Ну а если Вы такой же синий фил, как и мы, то милости просим на наш форум. И в заключение, попробуйте зарегистрироваться, ведь не так это и сложно и займет всего лишь пару минут! Вот увидите, Вам у нас понравится и Вы вольетесь в наш дружный коллектив! Ну а пока - осматривайтесь = )
Мы рады Вам !





Первый мститель / Captain America: The First Avenger (2011) 720p BDRip

Оформил: DaniLch | 20 октября 2011 - 12:30:20 | Комментариев: 1 | Обращений: 2938 {bookmarks_news}

http//lostpic.net/images/2f1d0ee5e9f43e94c2dbc899f85f29cb.png

Название: Первый мститель
Оригинальное название: Captain America: The First Avenger
Год выхода: 2011
Жанр: боевик, приключения, фантастика
Режиссер: Джо Джонстон / Joe Johnston
В ролях: Крис Эванс, Томми Ли Джонс, Хьюго Уивинг, Доминик Купер, Нил МакДонаф, Дерек Люк, Стенли Туччи, Сэмюэл Л. Джексон, Хейли Этвелл, Себастиан Стэн, Ричард Армитэдж

О фильме: Стив Роджерс добровольно соглашается принять участие в эксперименте, который превратит его в супер солдата, известного как Первый мститель. Роджерс вступает в вооруженные силы США вместе с Баки Барнсом и Пегги Картер, чтобы бороться с враждебной организацией ГИДРА, которой управляет безжалостный Красный Череп.

http//www.kinopoisk.ru/rating/160946.gif

Релиз от - http//hqclub.net/images/hqclub.png
Автор релиза: DaniLch

Выпущено: http//lostpic.net/images/ac5cb4a618da65239cf7be53b9ab78.gif США | Paramount Pictures, Marvel Studios
Продолжительность: 02:04:11

Рип от HDxT

Контейнер: MKV
Видео: 1280x544 (2.35:1), 23.976 fps, x264@L4.1, 2pass, ~6000 kbps
Аудио #1: Russian: 48 kHz, AC3 Dolby Digital, 3/2 (L,C,R,l,r) + LFE ch, ~640 kbps |Дубляж, BD EUR|
Аудио #2: English: 48 kHz/24-bit, DTS, 3/2 (L,C,R,l,r) + LFE ch, ~1536 kbps
Субтитры: русские форс., русские, английские
Размер: 7.07 Gb

http//lostpic.net/thumbs/70507c61b8958b312e1b14d418210133.png http//lostpic.net/thumbs/bd934a7992bbcd3df63c5c014c825e13.png http//lostpic.net/thumbs/270f20298ba3cbd942bd9fc243246e68.png http//lostpic.net/thumbs/478b74c4f707b4c7f646521b2cf76677.png
http//lostpic.net/thumbs/a773f7f9071a975089bc1eca6fd96da3.png http//lostpic.net/thumbs/b4d835043f25c96c615d09f91d2a3c43.png http//lostpic.net/thumbs/efbb909ab10aa5995fc7252eb5ade5.png http//lostpic.net/thumbs/8407dc467f14f05f179742108cadf9.png

http//bt.hqclub.net/files/ok.png Торрент: Первый мститель / Captain America: The First Avenger (2011) 720p BDRip

MediaInfo
General
Complete name : Captain.America.The.First.Avenger.2011.BDRip.720p.H264.AC3.DTS.-HQCLUB.mkv
Format : Matroska
File size : 7.07 GiB
Duration : 2h 4mn
Overall bit rate : 8 151 Kbps
Movie name : 720p BDRip by HDxT
Encoded date : UTC 2011-10-19 20:40:41
Writing application : mkvmerge v5.0.1 ('Es ist Sommer') built on Oct 9 2011 11:55:43
Writing library : libebml v1.2.2 + libmatroska v1.3.0

Video
ID : 1
Format : AVC
Format/Info : Advanced Video Codec
Format profile : High@L4.1
Format settings, CABAC : Yes
Format settings, ReFrames : 12 frames
Codec ID : V_MPEG4/ISO/AVC
Duration : 2h 4mn
Bit rate : 6 000 Kbps
Width : 1 280 pixels
Height : 544 pixels
Display aspect ratio : 2.35:1
Frame rate : 23.976 fps
Color space : YUV
Chroma subsampling : 4:2:0
Bit depth : 8 bits
Scan type : Progressive
Bits/(Pixel*Frame) : 0.359
Stream size : 5.06 GiB (72%)
Title : Captain America: The First Avenger (2011) 720p BDRip
Writing library : x264 core 118 r2085 8a62835
Encoding settings : cabac=1 / ref=12 / deblock=1:-3:-3 / analyse=0x3:0x133 / me=umh / subme=10 / psy=1 / psy_rd=0.90:0.10 / mixed_ref=1 / me_range=32 / chroma_me=1 / trellis=2 / 8x8dct=1 / cqm=0 / deadzone=21,11 / fast_pskip=0 / chroma_qp_offset=-3 / threads=6 / sliced_threads=0 / nr=0 / decimate=1 / interlaced=0 / bluray_compat=0 / constrained_intra=0 / bframes=6 / b_pyramid=2 / b_adapt=2 / b_bias=0 / direct=3 / weightb=1 / open_gop=0 / weightp=2 / keyint=250 / keyint_min=23 / scenecut=40 / intra_refresh=0 / rc_lookahead=80 / rc=2pass / mbtree=1 / bitrate=6000 / ratetol=1.0 / qcomp=0.60 / qpmin=0 / qpmax=69 / qpstep=4 / cplxblur=20.0 / qblur=0.5 / ip_ratio=1.40 / aq=1:0.80
Language : English

Audio #1
ID : 2
Format : AC-3
Format/Info : Audio Coding 3
Mode extension : CM (complete main)
Codec ID : A_AC3
Duration : 2h 4mn
Bit rate mode : Constant
Bit rate : 640 Kbps
Channel(s) : 6 channels
Channel positions : Front: L C R, Side: L R, LFE
Sampling rate : 48.0 KHz
Bit depth : 16 bits
Compression mode : Lossy
Stream size : 569 MiB (8%)
Title : AC3 5.1 @ 640 kbps - Дубляж, BD EUR
Language : Russian

Audio #2
ID : 3
Format : DTS
Format/Info : Digital Theater Systems
Codec ID : A_DTS
Duration : 2h 4mn
Bit rate mode : Constant
Bit rate : 1 510 Kbps
Channel(s) : 6 channels
Channel positions : Front: L C R, Side: L R, LFE
Sampling rate : 48.0 KHz
Bit depth : 24 bits
Compression mode : Lossy
Stream size : 1.31 GiB (19%)
Title : DTS 5.1 @ 1536 kbps
Language : English

Text #1
ID : 4
Format : UTF-8
Codec ID : S_TEXT/UTF8
Codec ID/Info : UTF-8 Plain Text
Title : Forced
Language : Russian

Text #2
ID : 5
Format : UTF-8
Codec ID : S_TEXT/UTF8
Codec ID/Info : UTF-8 Plain Text
Language : Russian

Text #3
ID : 6
Format : UTF-8
Codec ID : S_TEXT/UTF8
Codec ID/Info : UTF-8 Plain Text
Language : English

Menu
00:00:00.000 : en:00:00:00.000
00:08:12.158 : en:00:08:12.158
00:14:56.813 : en:00:14:56.813
00:24:21.543 : en:00:24:21.543
00:30:39.129 : en:00:30:39.129
00:38:39.859 : en:00:38:39.859
00:45:52.166 : en:00:45:52.166
00:51:58.157 : en:00:51:58.157
00:57:55.639 : en:00:57:55.639
01:03:59.294 : en:01:03:59.294
01:12:22.588 : en:01:12:22.588
01:19:10.663 : en:01:19:10.663
01:28:27.052 : en:01:28:27.052
01:33:53.002 : en:01:33:53.002
01:42:20.343 : en:01:42:20.343
01:50:45.055 : en:01:50:45.055
01:53:46.319 : en:01:53:46.319


Лучшая онлайн игра!


Публикация материалов сайта на сторонних ресурсах возможна только в неизменном виде.


Обсудить релиз на форуме

Вас также может заинтересовать:


  • 4
 (Голосов: 16)


Распечатать новость на принтере Боевик, Приключения, Фантастика
Обновлено: 23.10.2011 - 18:34

КОММЕНТАРИИ

 №1. ru4lan

Статус: Кинокритик | Новостей: 0 | Комментариев: 2736
ru4lan спасибо!"
~~~

20.09.2014 - 16:50   цитировать