Вас Приветствует Релиз-группа HQCLUB


Помощь ресурсу, очень ВАЖНО!!!



.


WELCOME
Добро пожаловать в наше интернет - сообщество!

Всех нас объединяет одна страсть - страсть к высококачественному кино. А это наш сайт. Ежедневно здесь мы публикуем десятки качественных, свежих, а порой и эксклюзивных релизов, которые Вы можете скачать совершенно бесплатно и без каких-либо регистраций. Посему рекомендуем Вам добавить HQClub себе в закладки, а также подписаться на нашу ленту новостей, чтобы всегда быть в курсе всех событий. Ну а если Вы такой же синий фил, как и мы, то милости просим на наш форум. И в заключение, попробуйте зарегистрироваться, ведь не так это и сложно и займет всего лишь пару минут! Вот увидите, Вам у нас понравится и Вы вольетесь в наш дружный коллектив! Ну а пока - осматривайтесь = )
Мы рады Вам !





Идальго: Погоня в Пустыне / Hidalgo (2004) BDRip-AVC

Оформил: Elheym | 1 октября 2014 - 21:25:43 | Обращений: 1059 {bookmarks_news}

http//lostpic.net/orig_images/a/4/b/a4b0cbd4fb4403d4e3b5529ad4617932.jpg

Информация о фильме:
Название: Идальго: Погоня в Пустыне
Оригинальное название: Hidalgo
Год выхода: 2004
Жанр: боевик, приключения, вестерн
Режиссер: Джо Джонстон / Joe Johnston
В ролях: Вигго Мортенсен, Зулейха Робинсон, Омар Шариф, Луиза Ломбард, Адам Алекси-Маль, Саид Тагмауи, Сайлас Карсон, Харш Найяр, Дж.К. Симмонс, Адони Маропис

О фильме: В 1890 году богатый шейх впервые пригласил участвовать в соревнованиях иностранца. Им стал американец Фрэнк Хопкинс, лучший ковбой и наездник на всем Диком Западе. Влиятельный шейх поставил сумасшедшие деньги на победу иноземца.

Теперь его судьба зависит от противостояния американского выскочки на мустанге по кличке Идальго и лучших арабских жеребцов, управляемых самыми искусными наездниками-бедуинами. И далеко не всех устраивает победа дерзкого янки в традиционном арабском дерби, ведь она может принести одним — славу, а другим — смерть. И для Фрэнка победа становится не только делом чести, но и единственной возможностью выжить в жарких песках бескрайней пустыни…

«Experience the incredible true story of a man who left behind the world he knew, and found the courage to do the impossible»



http//rating.kinopoisk.ru/5121.gif http//tracker.0day.kiev.ua/imdb/imdb_tt03176.gif

Релиз от - http//hqclub.net/images/hqclub.png
Автор рипа: Elheym

Выпущено: США, Марокко, Joe Johnston, Dune Films, Hidalgo Productions Inc., Touchstone Pictures
Продолжительность: 02:16:24
Перевод: Профессиональный (полное дублирование) + Авторский (одноголосый, закадровый) Ю. Сербин
Оригинальная аудио дорожка: английский
Субтитры: русские (полные, форсированные - на речь индейцев и арабов), английские (полные, полные SDH, форсированные)
Главы: присутствуют, сохранены оригинальные

Цитата:
За перевод Сербина большое спасибо пользователям форума hdtracker: Jiraya87, zeeniydzhan, Xerman13, SavineX, KpucTo161, pupok, Letyoha3, ZeRoNe, denis_mgn_1987, Role, IgorNN, Schmulke, arez1978, dunhill200, -Джосс-, zork, foxlight, olegsoleg, maximus1099, shitman82, jorn.vv, feldeger, DarveSh, Pain_70, politik1223, fly32, v111o, GansAn, sawyer4, shtift, Hattori Hanzo, GaryH, Luka69, Urassiks, timur


Файл:
Формат: MKV
Качество: BDRip-AVC (источник: http//lostpic.net/images/20a38122bcc5994b3cdae6e4b4b0.png / Blu-ray EUR / 1080p)
Видео: 1152x480 (2.40:1), 23.976 fps, MPEG-4 AVC, ~4348 kbps, 0.328 bit/pixel
Аудио #1: 48 kHz, AC3 Dolby Digital, 3/2 (L,C,R,l,r) + LFE ch, ~448 kbps (DUB)
Аудио #2: 48 kHz, AC3 Dolby Digital, 3/2 (L,C,R,l,r) + LFE ch, ~448 kbps (AVO.SERBIN)
Аудио #3: 48 kHz, AC3 Dolby Digital, 3/2 (L,C,R,l,r) + LFE ch, ~448 kbps (ENG)
Размер: 5.53 GB
Сэмпл: скачать

http//lostpic.net/thumbs_images/8/d/5/8d5adb12074c0b3d4e73eb475928f7.png http//lostpic.net/thumbs_images/4/a/1/4a125246a93a568a50d4c2b1cdab503a.png http//lostpic.net/thumbs_images/a/5/c/a5c08172aad006a668a2b64f39f73a.png http//lostpic.net/thumbs_images/c/f/a/cfa4117cb4cca7310d3c7816f40c.png http//lostpic.net/thumbs_images/4/b/1/4b15d818de5858966d2a562ce33e84ac.png http//lostpic.net/thumbs_images/f/b/1/fb1c43521ba743da0f566735b633aefa.png

"MediaInfo"

Уникальный идентификатор : 227467504111477068426267363117430237737 (0xAB20A5D33A57F14DBBEF01A3FC606A29)
Полное имя : Hidalgo.2004.TRIPLE.BDRip-AVC.x264.AC3.-HQCLUB.mkv
Формат : Matroska
Версия формата : Version 2
Размер файла : 5,53 Гбайт
Продолжительность : 2 ч. 16 м.
Общий поток : 5807 Кбит/сек
Дата кодирования : UTC 2014-10-01 16:20:47
Программа кодирования : mkvmerge v5.2.0 ('I can't explain') built on Dec 18 2011 18:12:03
Библиотека кодирования : libebml v1.2.3 + libmatroska v1.3.0

Видео
Идентификатор : 1
Формат : AVC
Формат/Информация : Advanced Video Codec
Профиль формата : High@L4.1
Параметр CABAC формата : Да
Параметр ReFrames формата : 13 кадров
Идентификатор кодека : V_MPEG4/ISO/AVC
Продолжительность : 2 ч. 16 м.
Битрейт : 4348 Кбит/сек
Ширина : 1152 пикселя
Высота : 480 пикселей
Соотношение сторон : 2,40:1
Режим частоты кадров : Постоянный
Частота кадров : 23,976 кадра/сек
Цветовое пространство : YUV
Субдискретизация насыщенности : 4:2:0
Битовая глубина : 8 бит
Тип развёртки : Прогрессивная
Бит/(Пиксели*Кадры) : 0.328
Размер потока : 4,14 Гбайт (75%)
Заголовок : Идальго: Погоня в Пустыне / Hidalgo (2004) BDRip-AVC by HQCLUB [Elheym]
Библиотека кодирования : x264 core 142 r2479kMod dd79a61
Настройки программы : cabac=1 / ref=13 / deblock=1:-3:-2 / analyse=0x3:0x113 / me=umh / subme=11 / psy=1 / fade_compensate=0.00 / psy_rd=1.07:0.00 / mixed_ref=1 / me_range=32 / chroma_me=1 / trellis=2 / 8x8dct=1 / cqm=0 / deadzone=21,11 / fast_pskip=0 / chroma_qp_offset=-4 / threads=6 / lookahead_threads=1 / sliced_threads=0 / nr=0 / decimate=1 / interlaced=0 / bluray_compat=0 / constrained_intra=0 / fgo=0 / bframes=10 / b_pyramid=2 / b_adapt=2 / b_bias=0 / direct=1 / weightb=1 / open_gop=0 / weightp=2 / keyint=230 / keyint_min=23 / scenecut=40 / intra_refresh=0 / rc_lookahead=40 / rc=crf / mbtree=1 / crf=15.9300 / qcomp=0.60 / qpmin=0 / qpmax=69 / qpstep=4 / vbv_maxrate=50000 / vbv_bufsize=62500 / crf_max=0.0 / nal_hrd=none / filler=0 / ip_ratio=1.40 / aq=3:0.90
Язык : English
Default : Да
Forced : Нет

Аудио #1
Идентификатор : 2
Формат : AC-3
Формат/Информация : Audio Coding 3
Расширение режима : CM (complete main)
Параметр Endianness формата : Big
Идентификатор кодека : A_AC3
Продолжительность : 2 ч. 16 м.
Вид битрейта : Постоянный
Битрейт : 448 Кбит/сек
Каналы : 6 каналов
Расположение каналов : Front: L C R, Side: L R, LFE
Частота : 48,0 КГц
Битовая глубина : 16 бит
Метод сжатия : С потерями
Размер потока : 437 Мбайт (8%)
Заголовок : АС3 5.1 @ 448 kbps - Dub, BD EUR
Язык : Russian
Default : Нет
Forced : Нет

Аудио #2
Идентификатор : 3
Формат : AC-3
Формат/Информация : Audio Coding 3
Расширение режима : CM (complete main)
Параметр Endianness формата : Big
Идентификатор кодека : A_AC3
Продолжительность : 2 ч. 16 м.
Вид битрейта : Постоянный
Битрейт : 448 Кбит/сек
Каналы : 6 каналов
Расположение каналов : Front: L C R, Side: L R, LFE
Частота : 48,0 КГц
Битовая глубина : 16 бит
Метод сжатия : С потерями
Размер потока : 437 Мбайт (8%)
Заголовок : АС3 5.1 @ 448 kbps - AVO, Serbin
Язык : Russian
Default : Нет
Forced : Нет

Аудио #3
Идентификатор : 4
Формат : AC-3
Формат/Информация : Audio Coding 3
Расширение режима : CM (complete main)
Параметр Endianness формата : Big
Идентификатор кодека : A_AC3
Продолжительность : 2 ч. 16 м.
Вид битрейта : Постоянный
Битрейт : 448 Кбит/сек
Каналы : 6 каналов
Расположение каналов : Front: L C R, Side: L R, LFE
Частота : 48,0 КГц
Битовая глубина : 16 бит
Метод сжатия : С потерями
Размер потока : 437 Мбайт (8%)
Заголовок : АС3 5.1 @ 448 kbps - Original
Язык : English
Default : Нет
Forced : Нет

Текст #1
Идентификатор : 5
Формат : UTF-8
Идентификатор кодека : S_TEXT/UTF8
Идентификатор кодека/Информация : UTF-8 Plain Text
Заголовок : Full
Язык : Russian
Default : Нет
Forced : Нет

Текст #2
Идентификатор : 6
Формат : UTF-8
Идентификатор кодека : S_TEXT/UTF8
Идентификатор кодека/Информация : UTF-8 Plain Text
Заголовок : Forced
Язык : Russian
Default : Нет
Forced : Нет

Текст #3
Идентификатор : 7
Формат : UTF-8
Идентификатор кодека : S_TEXT/UTF8
Идентификатор кодека/Информация : UTF-8 Plain Text
Заголовок : Full
Язык : English
Default : Нет
Forced : Нет

Текст #4
Идентификатор : 8
Формат : UTF-8
Идентификатор кодека : S_TEXT/UTF8
Идентификатор кодека/Информация : UTF-8 Plain Text
Заголовок : Full SDH
Язык : English
Default : Нет
Forced : Нет

Текст #5
Идентификатор : 9
Формат : UTF-8
Идентификатор кодека : S_TEXT/UTF8
Идентификатор кодека/Информация : UTF-8 Plain Text
Заголовок : Forced
Язык : English
Default : Нет
Forced : Нет

Меню
00:00:00.000 : :Chapter 01
00:04:00.114 : :Chapter 02
00:08:08.321 : :Chapter 03
00:13:07.787 : :Chapter 04
00:23:58.687 : :Chapter 05
00:31:04.612 : :Chapter 06
00:39:29.992 : :Chapter 07
00:50:55.719 : :Chapter 08
00:58:42.393 : :Chapter 09
01:06:45.960 : :Chapter 10
01:12:21.795 : :Chapter 11
01:23:50.650 : :Chapter 12
01:30:35.805 : :Chapter 13
01:41:25.788 : :Chapter 14
01:49:23.640 : :Chapter 15
01:55:24.208 : :Chapter 16
02:01:13.557 : :Chapter 17
02:03:51.465 : :Chapter 18
02:16:24.926 : :Chapter 19

"x264 log"

x264 [info]: frame I:1598 Avg QP:12.31 size:117107
x264 [info]: frame P:40401 Avg QP:15.90 size: 43038
x264 [info]: frame B:154244 Avg QP:18.26 size: 17104

x264 [info]: consecutive B-frames: 1.5% 1.6% 5.3% 24.2% 17.8% 36.9% 4.9% 4.7% 1.4% 1.0% 0.8%

x264 [info]: ref P L0: 39.8% 10.9% 17.1% 7.6% 6.1% 4.3% 3.8% 2.2% 2.0% 1.7% 1.6% 1.3% 1.4% 0.2% 0.0%
x264 [info]: ref B L0: 68.0% 12.6% 6.5% 3.4% 2.5% 2.0% 1.6% 1.0% 0.9% 0.8% 0.5% 0.2%
x264 [info]: ref B L1: 92.0% 8.0%


Ссылки для скачивания:

http//bt.hqclub.net/files/ok.png Торрент: Идальго: Погоня в Пустыне / Hidalgo (2004) BDRip-AVC

Лучшая онлайн игра!


Публикация материалов сайта на сторонних ресурсах возможна только в неизменном виде.


Обсудить релиз на форуме

Вас также может заинтересовать:


  • 5
 (Голосов: 1)


Распечатать новость на принтере Боевик, Приключения, Вестерн
Обновлено: 1.10.2014 - 22:02