Вас Приветствует Релиз-группа HQCLUB


Помощь ресурсу, очень ВАЖНО!!!



.


WELCOME
Добро пожаловать в наше интернет - сообщество!

Всех нас объединяет одна страсть - страсть к высококачественному кино. А это наш сайт. Ежедневно здесь мы публикуем десятки качественных, свежих, а порой и эксклюзивных релизов, которые Вы можете скачать совершенно бесплатно и без каких-либо регистраций. Посему рекомендуем Вам добавить HQClub себе в закладки, а также подписаться на нашу ленту новостей, чтобы всегда быть в курсе всех событий. Ну а если Вы такой же синий фил, как и мы, то милости просим на наш форум. И в заключение, попробуйте зарегистрироваться, ведь не так это и сложно и займет всего лишь пару минут! Вот увидите, Вам у нас понравится и Вы вольетесь в наш дружный коллектив! Ну а пока - осматривайтесь = )
Мы рады Вам !





Ип Ман 2 / Yip Man 2 (2010) BDRip-AVC

Оформил: Gellard | 5 июня 2012 - 00:31:01 | Комментариев: 1 | Обращений: 1823 {bookmarks_news}

http//lostpic.net/images/ea954206153117de06adeb7d3bc0d27c.png

Информация о фильме:
Название: Ип Ман 2
Оригинальное название: Yip Man 2: Chung si chuen kei
Год выхода: 2010
Жанр: боевик, биография, история
Режиссер: Уилсон Ип / Wilson Yip
В ролях: Донни Ен, Линн Хунг, Саймон Ям, Саммо Хунг Кам-Бо, Хуан Сяомин, Сю-Вонг Фан, Кент Чэн, Даррен Шахлави, Эмбер Чиа, Йианг Даи-Ян

О фильме: Вторая Мировая война закончилась, но Китай все еще слаб и беден. Ип Ман открывает свою школу боевых искусств, однако завоевать свое место под солнцем оказывается непросто — чтобы избежать проблем, Ип Ману нужно сначала завоевать уважение представителей других кунгфу-школ, а председательствующему в их ассоциации Хунгу Ип Ман не понравился с первого взгляда. А тем временем в Гонконге усиливается присутствие британцев, и некоторые из них плевать хотели на китайские традиции и обычаи.

http//www.kinopoisk.ru/rating/450753.gif http//imdb.snick.ru/ratefor/03/tt1386932.png

Релиз от - http//hqclub.net/images/hqclub.png
Автор рипа: Deep Fusion

Выпущено: Гонконг, Китай
Продолжительность: ~01:47:49
Перевод: Профессиональный (двухголосый закадровый) |BBC Saint-Petersburg| + Профессиональный (двухголосый закадровый) |Кубик в Кубике| + Оригинальная звуковая дорожка (китайская)
Субтитры: Русские (полные, ChinaFilm), Английские (полные)

Файл:
Формат: MKV
Качество: BDRip-AVC (Источник: http//www.10pix.ru/img1/2874/107126.gif / BDRemux / 1080p)
Видео:1040x442 (2,35:1), 23.976 fps, x264@L4.1, 2pass ~3600 kbps avg, 0.327 bit/pixel
Звук #1: 48 kHz, AC3 Dolby Digital, 3/2 (L,C,R,l,r) + LFE ch, ~384 kbps (BBC Saint-Petersburg)
Звук #2: 48 kHz, AC3 Dolby Digital, 3/2 (L,C,R,l,r) + LFE ch, ~384 kbps (Кубик в Кубике)
Звук #3: 48 kHz, AC3 Dolby Digital, 3/2 (L,C,R,l,r) + LFE ch, ~384 kbps Оригинальная звуковая дорожка (китайская)
Размер: 3665.72 Mb
Скачать: Сэмпл

http//lostpic.net/thumbs/2c47863408e38675d4b8afc71ac20173.png http//lostpic.net/thumbs/eba61db1695f0d5d206df241c14d2b00.png http//lostpic.net/thumbs/6b7882afbffcdf40d3215e29c54c5a.png http//lostpic.net/thumbs/7d30fd0bcf7a31a717b3902c9e1eb782.png http//lostpic.net/thumbs/4c3393e626067ad819ba9e73c818faa3.png

"x264 log"
---[NoImage] x264 [info]: frame I:1456 Avg QP:18.61 size: 81184
---[NoImage] x264 [info]: frame P:36638 Avg QP:21.05 size: 30974
---[NoImage] x264 [info]: frame B:117024 Avg QP:22.22 size: 14161
---[NoImage] x264 [info]: consecutive B-frames: 2.8% 4.2% 9.2% 28.3% 17.5% 30.8% 3.5% 1.1% 1.2% 0.5% 0.4% 0.6%
---[NoImage] x264 [info]: mb I I16..4: 6.4% 67.4% 26.2%
---[NoImage] x264 [info]: mb P I16..4: 1.6% 15.6% 2.8% P16..4: 28.0% 34.1% 12.6% 0.0% 0.0% skip: 5.3%
---[NoImage] x264 [info]: mb B I16..4: 0.3% 2.2% 0.4% B16..8: 33.6% 21.9% 4.5% direct: 9.8% skip:27.3% L0:38.8% L1:41.7% BI:19.5%
---[NoImage] x264 [info]: 8x8 transform intra:76.7% inter:58.9%
---[NoImage] x264 [info]: coded y,uvDC,uvAC intra: 86.3% 89.5% 75.1% inter: 37.3% 42.2% 13.6%
---[NoImage] x264 [info]: i16 v,h,dc,p: 38% 14% 7% 41%
---[NoImage] x264 [info]: i8 v,h,dc,ddl,ddr,vr,hd,vl,hu: 8% 7% 6% 10% 15% 14% 14% 12% 13%
---[NoImage] x264 [info]: i4 v,h,dc,ddl,ddr,vr,hd,vl,hu: 11% 8% 5% 9% 15% 14% 14% 11% 13%
---[NoImage] x264 [info]: i8c dc,h,v,p: 42% 22% 18% 19%
---[NoImage] x264 [info]: Weighted P-Frames: Y:3.5% UV:1.3%
---[NoImage] x264 [info]: ref P L0: 48.0% 12.3% 17.2% 7.2% 5.1% 3.8% 3.0% 1.8% 1.4% 0.2% 0.0%
---[NoImage] x264 [info]: ref B L0: 77.8% 11.8% 4.6% 2.3% 1.6% 1.1% 0.6% 0.2%
---[NoImage] x264 [info]: ref B L1: 94.5% 5.5%
---[NoImage] x264 [info]: kb/s:3598.55
"MediaInfo"
Формат : Matroska
Версия формата : Version 2
Размер файла : 3,58 Гбайт
Продолжительность : 1 ч. 47 м.
Общий поток : 4753 Кбит/сек
Дата кодирования : UTC 2012-06-04 20:55:50
Программа кодирования : mkvmerge v5.5.0 ('Healer') built on Apr 6 2012 21:43:24
Библиотека кодирования : libebml v1.2.3 + libmatroska v1.3.0

Видео
Идентификатор : 1
Формат : AVC
Формат/Информация : Advanced Video Codec
Профиль формата : High@L4.1
Параметр CABAC формата : Да
Параметр ReFrames формата : 9 кадров
Идентификатор кодека : V_MPEG4/ISO/AVC
Продолжительность : 1 ч. 47 м.
Битрейт : 3600 Кбит/сек
Ширина : 1040 пикселей
Высота : 442 пикселя
Соотношение сторон : 2,35:1
Частота кадров : 23,976 кадра/сек
Цветовое пространство : YUV
Субдискретизация насыщенности : 4:2:0
Битовая глубина : 8 бит
Тип развёртки : Прогрессивная
Бит/(Пиксели*Кадры) : 0.327
Размер потока : 2,64 Гбайт (74%)
Заголовок : Ип Ман 2 / Yip Man 2: Chung si chuen kei (2010) BDRip-AVC | HQCLUB
Библиотека кодирования : x264 core 125 r2200 999b753
Настройки программы : cabac=1 / ref=9 / deblock=1:-3:-3 / analyse=0x3:0x113 / me=umh / subme=11 / psy=1 / psy_rd=1.05:0.05 / mixed_ref=1 / me_range=64 / chroma_me=1 / trellis=2 / 8x8dct=1 / cqm=0 / deadzone=21,11 / fast_pskip=0 / chroma_qp_offset=-5 / threads=6 / lookahead_threads=1 / sliced_threads=0 / nr=0 / decimate=1 / interlaced=0 / bluray_compat=0 / constrained_intra=0 / bframes=11 / b_pyramid=2 / b_adapt=2 / b_bias=0 / direct=1 / weightb=1 / open_gop=0 / weightp=2 / keyint=240 / keyint_min=23 / scenecut=40 / intra_refresh=0 / rc_lookahead=60 / rc=2pass / mbtree=0 / bitrate=3600 / ratetol=1.0 / qcomp=0.60 / qpmin=10 / qpmax=69 / qpstep=4 / cplxblur=20.0 / qblur=0.5 / vbv_maxrate=62500 / vbv_bufsize=50000 / nal_hrd=none / ip_ratio=1.40 / pb_ratio=1.30 / aq=1:0.70
Язык : Chinese
Default : Да
Forced : Нет

Аудио #1
Идентификатор : 2
Формат : AC-3
Формат/Информация : Audio Coding 3
Расширение режима : CM (complete main)
Параметр Endianness формата : Big
Идентификатор кодека : A_AC3
Продолжительность : 1 ч. 47 м.
Вид битрейта : Постоянный
Битрейт : 384 Кбит/сек
Каналы : 6 каналов
Расположение каналов : Front: L C R, Side: L R, LFE
Частота : 48,0 КГц
Битовая глубина : 16 бит
Метод сжатия : С потерями
Размер потока : 296 Мбайт (8%)
Заголовок : Профессиональный (двухголосый закадровый) |BBC Saint-Petersburg|
Язык : Russian
Default : Да
Forced : Нет

Аудио #2
Идентификатор : 3
Формат : AC-3
Формат/Информация : Audio Coding 3
Расширение режима : CM (complete main)
Параметр Endianness формата : Big
Идентификатор кодека : A_AC3
Продолжительность : 1 ч. 47 м.
Вид битрейта : Постоянный
Битрейт : 384 Кбит/сек
Каналы : 6 каналов
Расположение каналов : Front: L C R, Side: L R, LFE
Частота : 48,0 КГц
Битовая глубина : 16 бит
Метод сжатия : С потерями
Размер потока : 296 Мбайт (8%)
Заголовок : Профессиональный (двухголосый закадровый) |Кубик в Кубике|
Язык : Russian
Default : Нет
Forced : Нет

Аудио #3
Идентификатор : 4
Формат : AC-3
Формат/Информация : Audio Coding 3
Расширение режима : CM (complete main)
Параметр Endianness формата : Big
Идентификатор кодека : A_AC3
Продолжительность : 1 ч. 47 м.
Вид битрейта : Постоянный
Битрейт : 384 Кбит/сек
Каналы : 6 каналов
Расположение каналов : Front: L C R, Side: L R, LFE
Частота : 48,0 КГц
Битовая глубина : 16 бит
Метод сжатия : С потерями
Размер потока : 296 Мбайт (8%)
Заголовок : Оригинальная звуковая дорожка (китайская)
Язык : Chinese
Default : Нет
Forced : Нет

Текст #1
Идентификатор : 5
Формат : UTF-8
Идентификатор кодека : S_TEXT/UTF8
Идентификатор кодека/Информация : UTF-8 Plain Text
Заголовок : Русские (полные, ChinaFilm)
Язык : Russian
Default : Да
Forced : Нет

Текст #2
Идентификатор : 6
Формат : UTF-8
Идентификатор кодека : S_TEXT/UTF8
Идентификатор кодека/Информация : UTF-8 Plain Text
Заголовок : Английские (полные)
Язык : English
Default : Нет
Forced : Нет


http//bt.hqclub.net/files/ok.png Торрент: Ип Ман 2 / Yip Man 2 (2010) BDRip-AVC

Лучшая онлайн игра!


Публикация материалов сайта на сторонних ресурсах возможна только в неизменном виде.


Обсудить релиз на форуме

Вас также может заинтересовать:


  • 5
 (Голосов: 2)


Распечатать новость на принтере Боевик, Биография, Исторический

КОММЕНТАРИИ

 №1. ru4lan

Статус: Кинокритик | Новостей: 0 | Комментариев: 2736
ru4lan а 1 часть Ипмана хде?
~~~

25.08.2012 - 00:38   цитировать