Вас Приветствует Релиз-группа HQCLUB


Помощь ресурсу, очень ВАЖНО!!!



.


WELCOME
Добро пожаловать в наше интернет - сообщество!

Всех нас объединяет одна страсть - страсть к высококачественному кино. А это наш сайт. Ежедневно здесь мы публикуем десятки качественных, свежих, а порой и эксклюзивных релизов, которые Вы можете скачать совершенно бесплатно и без каких-либо регистраций. Посему рекомендуем Вам добавить HQClub себе в закладки, а также подписаться на нашу ленту новостей, чтобы всегда быть в курсе всех событий. Ну а если Вы такой же синий фил, как и мы, то милости просим на наш форум. И в заключение, попробуйте зарегистрироваться, ведь не так это и сложно и займет всего лишь пару минут! Вот увидите, Вам у нас понравится и Вы вольетесь в наш дружный коллектив! Ну а пока - осматривайтесь = )
Мы рады Вам !





Мачо и ботан / 21 Jump Street (2012) BDRip 720p

Оформил: Gellard | 12 июня 2012 - 18:51:24 | Обращений: 1567 {bookmarks_news}

http//lostpic.net/images/39ecbae269517b176095c9b74c315229.png

Информация о фильме:
Название: Мачо и ботан
Оригинальное название: 21 Jump Street
Год выхода: 2012
Жанр: боевик, комедия, криминал
Режиссер: Фил Лорд, Крис Миллер
В ролях: Джона Хилл, Ченнинг Татум, Бри Ларсон, Дэйв Франко, Роб Риггл, Айс Кьюб, ДеРэй Дэвис, Дакс Флэйм, Крис Парнелл, Элли Кемпер

О фильме: Двое новоиспеченных горе-полицейских отправляются на сверхсекретное задание. Им предстоит заново стать учениками средней школы, в которой процветает наркоторговля.

http//www.kinopoisk.ru/rating/413080.gif

Релиз от - http//hqclub.net/images/hqclub.png
Автор рипа: Deep Fusion

Выпущено: США
Продолжительность: 01:49:37
Перевод: Профессиональный (полное дублирование) + Профессиональный (полное дублирование) [Украинский] + Оригинальная звуковая дорожка (английская) + Комментарии (английские)
Субтитры: Русские (форсированные, R5), Английские (полные)

Файл:
Формат: MKV
Качество: BDRip 720p (Источник: HDCLUB / BDRemux / 1080p)
Видео: 1280x534 (2.40:1), 23.976 fps, x264@L4.1 ~3000 kbps avg, 0.183 bit/pixel
Звук #1: 48 kHz, AC3 Dolby Digital, 3/2 (L,C,R,l,r) + LFE ch, ~448 kbps avg (RUS)
Звук #2: 48 kHz, AC3 Dolby Digital, 3/2 (L,C,R,l,r) + LFE ch, ~448 kbps avg (UKR)
Звук #3: 48 kHz, Digital Theater System, 3/2 (L,C,R,l,r) + LFE ch, ~1510 kbps avg (ENG)
Звук #4: 48 kHz, AC3 Dolby Digital, 2/0 (L,R) ch, ~192 kbps avg (ENG)
Размер: 4390.88 Mb
Скачать: Сэмпл

http//lostpic.net/thumbs/ad464c5ef467a8e8c1210819298f9b64.png http//lostpic.net/thumbs/9bad80c752f0bd87eb9f3b85414edb36.png http//lostpic.net/thumbs/6d4ee063353e2c507f0ba91fb6e811f8.png http//lostpic.net/thumbs/f47d4d1825641c59b556f65ac33d5254.png http//lostpic.net/thumbs/6d1ba33c8a0a6641c98b0d6c19a7c0b3.png http//lostpic.net/thumbs/dde71239c443b9473d33bafd3a4fa027.png

"x264 log"
---[NoImage] x264 [info]: frame I:1810 Avg QP:16.00 size: 85560
---[NoImage] x264 [info]: frame P:34860 Avg QP:17.98 size: 27391
---[NoImage] x264 [info]: frame B:121034 Avg QP:19.04 size: 11198
---[NoImage] x264 [info]: consecutive B-frames: 2.3% 2.8% 7.5% 32.4% 14.3% 23.9% 4.6% 9.9% 0.9% 0.2% 0.3% 0.8%
---[NoImage] x264 [info]: mb I I16..4: 6.1% 74.0% 19.9%
---[NoImage] x264 [info]: mb P I16..4: 1.1% 9.6% 1.4% P16..4: 31.0% 36.4% 12.0% 0.0% 0.0% skip: 8.6%
---[NoImage] x264 [info]: mb B I16..4: 0.1% 1.2% 0.1% B16..8: 33.3% 21.7% 3.7% direct: 5.2% skip:34.7% L0:43.2% L1:45.2% BI:11.5%
---[NoImage] x264 [info]: 8x8 transform intra:79.0% inter:66.2%
---[NoImage] x264 [info]: coded y,uvDC,uvAC intra: 85.1% 91.4% 79.9% inter: 19.7% 28.1% 14.0%
---[NoImage] x264 [info]: i16 v,h,dc,p: 20% 13% 4% 63%
---[NoImage] x264 [info]: i8 v,h,dc,ddl,ddr,vr,hd,vl,hu: 12% 8% 4% 10% 14% 14% 14% 12% 13%
---[NoImage] x264 [info]: i4 v,h,dc,ddl,ddr,vr,hd,vl,hu: 14% 9% 4% 9% 15% 13% 13% 10% 11%
---[NoImage] x264 [info]: i8c dc,h,v,p: 44% 21% 18% 17%
---[NoImage] x264 [info]: Weighted P-Frames: Y:1.4% UV:0.8%
---[NoImage] x264 [info]: ref P L0: 52.3% 7.0% 16.1% 7.6% 5.6% 4.3% 3.4% 2.0% 1.6% 0.2% 0.0%
---[NoImage] x264 [info]: ref B L0: 74.1% 13.2% 5.7% 2.8% 1.9% 1.4% 0.8% 0.2%
---[NoImage] x264 [info]: ref B L1: 93.3% 6.7%
---[NoImage] x264 [info]: kb/s:2998.21
"MediaInfo"
Формат : Matroska
Версия формата : Version 2
Размер файла : 4,29 Гбайт
Продолжительность : 1 ч. 49 м.
Общий поток : 5582 Кбит/сек
Дата кодирования : UTC 2012-06-12 09:36:06
Программа кодирования : mkvmerge v5.5.0 ('Healer') built on Apr 6 2012 21:43:24
Библиотека кодирования : libebml v1.2.3 + libmatroska v1.3.0

Видео
Идентификатор : 1
Формат : AVC
Формат/Информация : Advanced Video Codec
Профиль формата : High@L4.1
Параметр CABAC формата : Да
Параметр ReFrames формата : 9 кадров
Идентификатор кодека : V_MPEG4/ISO/AVC
Продолжительность : 1 ч. 49 м.
Битрейт : 3000 Кбит/сек
Ширина : 1280 пикселей
Высота : 534 пикселя
Соотношение сторон : 2,40:1
Частота кадров : 23,976 кадра/сек
Цветовое пространство : YUV
Субдискретизация насыщенности : 4:2:0
Битовая глубина : 8 бит
Тип развёртки : Прогрессивная
Бит/(Пиксели*Кадры) : 0.183
Размер потока : 2,21 Гбайт (51%)
Заголовок : Мачо и ботан / 21 Jump Street (2012) BDRip 720p | HQCLUB by Deep Fusion
Библиотека кодирования : x264 core 125 r2200 999b753
Настройки программы : cabac=1 / ref=9 / deblock=1:-3:-3 / analyse=0x3:0x113 / me=umh / subme=11 / psy=1 / psy_rd=1.00:0.00 / mixed_ref=1 / me_range=64 / chroma_me=1 / trellis=2 / 8x8dct=1 / cqm=0 / deadzone=21,11 / fast_pskip=0 / chroma_qp_offset=-4 / threads=6 / lookahead_threads=1 / sliced_threads=0 / nr=0 / decimate=1 / interlaced=0 / bluray_compat=0 / constrained_intra=0 / bframes=11 / b_pyramid=2 / b_adapt=2 / b_bias=0 / direct=1 / weightb=1 / open_gop=0 / weightp=2 / keyint=240 / keyint_min=23 / scenecut=40 / intra_refresh=0 / rc_lookahead=60 / rc=2pass / mbtree=0 / bitrate=3000 / ratetol=1.0 / qcomp=0.60 / qpmin=10 / qpmax=69 / qpstep=4 / cplxblur=20.0 / qblur=0.5 / vbv_maxrate=62500 / vbv_bufsize=50000 / nal_hrd=none / ip_ratio=1.40 / pb_ratio=1.30 / aq=1:0.80
Язык : English
Default : Да
Forced : Нет

Аудио #1
Идентификатор : 2
Формат : AC-3
Формат/Информация : Audio Coding 3
Расширение режима : CM (complete main)
Параметр Endianness формата : Big
Идентификатор кодека : A_AC3
Продолжительность : 1 ч. 49 м.
Вид битрейта : Постоянный
Битрейт : 448 Кбит/сек
Каналы : 6 каналов
Расположение каналов : Front: L C R, Side: L R, LFE
Частота : 48,0 КГц
Битовая глубина : 16 бит
Метод сжатия : С потерями
Размер потока : 352 Мбайт (8%)
Заголовок : Профессиональный (полное дублирование)
Язык : Russian
Default : Да
Forced : Нет

Аудио #2
Идентификатор : 3
Формат : AC-3
Формат/Информация : Audio Coding 3
Расширение режима : CM (complete main)
Параметр Endianness формата : Big
Идентификатор кодека : A_AC3
Продолжительность : 1 ч. 49 м.
Вид битрейта : Постоянный
Битрейт : 448 Кбит/сек
Каналы : 6 каналов
Расположение каналов : Front: L C R, Side: L R, LFE
Частота : 48,0 КГц
Битовая глубина : 16 бит
Метод сжатия : С потерями
Размер потока : 352 Мбайт (8%)
Заголовок : Профессиональный (полное дублирование)[Украинский]
Язык : Ukrainian
Default : Нет
Forced : Нет

Аудио #3
Идентификатор : 4
Формат : DTS
Формат/Информация : Digital Theater Systems
Идентификатор кодека : A_DTS
Продолжительность : 1 ч. 49 м.
Вид битрейта : Постоянный
Битрейт : 1510 Кбит/сек
Каналы : 6 каналов
Расположение каналов : Front: L C R, Side: L R, LFE
Частота : 48,0 КГц
Битовая глубина : 24 бит
Метод сжатия : С потерями
Размер потока : 1,16 Гбайт (27%)
Заголовок : Оригинальная звуковая дорожка (английская)
Язык : English
Default : Нет
Forced : Нет

Аудио #4
Идентификатор : 5
Формат : AC-3
Формат/Информация : Audio Coding 3
Профиль формата : Dolby Digital
Расширение режима : CM (complete main)
Параметр Endianness формата : Big
Идентификатор кодека : A_AC3
Продолжительность : 1 ч. 49 м.
Вид битрейта : Постоянный
Битрейт : 192 Кбит/сек
Каналы : 2 канала
Расположение каналов : Front: L R
Частота : 48,0 КГц
Битовая глубина : 16 бит
Метод сжатия : С потерями
Размер потока : 151 Мбайт (3%)
Заголовок : Комментарии (английские)
Язык : English
Default : Нет
Forced : Нет

Текст #1
Идентификатор : 6
Формат : UTF-8
Идентификатор кодека : S_TEXT/UTF8
Идентификатор кодека/Информация : UTF-8 Plain Text
Заголовок : Русские (форсированные)
Язык : Russian
Default : Да
Forced : Нет

Текст #2
Идентификатор : 7
Формат : UTF-8
Идентификатор кодека : S_TEXT/UTF8
Идентификатор кодека/Информация : UTF-8 Plain Text
Заголовок : Английские (полные)
Язык : English
Default : Нет
Forced : Нет

Меню
00:00:00.000 : :Chapter 01
00:08:57.328 : :Chapter 02
00:18:21.683 : :Chapter 03
00:26:14.531 : :Chapter 04
00:33:15.827 : :Chapter 05
00:39:38.626 : :Chapter 06
00:45:53.292 : :Chapter 07
00:50:05.335 : :Chapter 08
00:56:19.542 : :Chapter 09
01:04:42.837 : :Chapter 10
01:09:50.185 : :Chapter 11
01:15:22.684 : :Chapter 12
01:19:53.787 : :Chapter 13
01:25:25.620 : :Chapter 14
01:34:44.679 : :Chapter 15
01:40:50.711 : :Chapter 16


http//bt.hqclub.net/files/ok.png Торрент: Мачо и ботан / 21 Jump Street (2012) BDRip 720p

Лучшая онлайн игра!


Публикация материалов сайта на сторонних ресурсах возможна только в неизменном виде.


Обсудить релиз на форуме

Вас также может заинтересовать:


  • 4
 (Голосов: 13)


Распечатать новость на принтере Боевик, Комедия, Криминал
Обновлено: 15.06.2012 - 02:03