Вас Приветствует Релиз-группа HQCLUB


Помощь ресурсу, очень ВАЖНО!!!



.


WELCOME
Добро пожаловать в наше интернет - сообщество!

Всех нас объединяет одна страсть - страсть к высококачественному кино. А это наш сайт. Ежедневно здесь мы публикуем десятки качественных, свежих, а порой и эксклюзивных релизов, которые Вы можете скачать совершенно бесплатно и без каких-либо регистраций. Посему рекомендуем Вам добавить HQClub себе в закладки, а также подписаться на нашу ленту новостей, чтобы всегда быть в курсе всех событий. Ну а если Вы такой же синий фил, как и мы, то милости просим на наш форум. И в заключение, попробуйте зарегистрироваться, ведь не так это и сложно и займет всего лишь пару минут! Вот увидите, Вам у нас понравится и Вы вольетесь в наш дружный коллектив! Ну а пока - осматривайтесь = )
Мы рады Вам !





Бесстрашная гиена / Fearless Hyena / Xiao quan guai zhao (1979) BDRip 720p

Оформил: Gellard | 9 июля 2014 - 17:20:05 | Комментариев: 2 | Обращений: 867 {bookmarks_news}

http//lostpic.net/orig_images/c/c/b/ccbde069840afa8a6b0bf6cec5f55d02.png

Информация о фильме
Название: Бесстрашная гиена
Оригинальное название: Xiao quan guai zhao
Год выхода: 1979
Жанр: боевик, комедия

Режиссер: Джеки Чан, Кеннет Цан

В ролях: Джеки Чан, Джеймс Тьен, Дин Шек, Хуи Лу Чен, Ши-Кван Йен, Куин Ли, Тин-чи Ченг, Чи-пинг Чанг, Чу Сиу Ва, Игл Хан Йинг

О фильме: На глазах юноши Ланга убийцы расправляются с любимым дедом, в прошлом знаменитым бойцом. Под руководством старого учителя Ланг обучается искусству борьбы, чтобы отомстить бандитам.

Дополнительно:
1. Серые пиксельные полосы и дефекты пленки по краям были почищены с помощью FillMargins и BalanceBorders.
2. Синхронизация перевода ДТВ - Gellard. Синхронизация перевода ТВ-6 - Ambulacetus (HDTracker).
3. В сети имеется также шестиканальная дорожка с переводом ТВ-6, где выделенные голоса были наложены на центральный канал оригинала. Не использована по причине низкого качества.

http//rating.kinopoisk.ru/192.gif

Релиз от - http//hqclub.net/images/hqclub.png
Автор рипа: Gellard

Выпущено: Гонконг, Южная Корея
Продолжительность: 01:37:13
Перевод: профессиональный (двухголосый, закадровый) (ДТВ / СТС) + профессиональный (одноголосый, закадровый) (ТВ-6) + авторский (Сергей Визгунов) + оригинал (кантонский)
Субтитры: английские, китайские

Файл:
Формат: MKV
Качество: BDRip 720p (источник: AsianDVDClub / Blu-Ray Disc / 1080p)
Видео: 1280x544 (2.35:1), 23.976 fps, x264, 7844 kbps avg, 0.470 bit/pixel
Аудио #1: http//i32.fastpic.ru/big/2011/1013/5e/b0d0bcc854c707b9016eaa56c7d25e.gif 48 kHz, AC3 Dolby Digital, 2/0 (L,R) ch, 192 kbps avg |Двухголосый (ДТВ / СТС)|
Аудио #2: http//i32.fastpic.ru/big/2011/1013/5e/b0d0bcc854c707b9016eaa56c7d25e.gif 48 kHz, AC3 Dolby Digital, 2/0 (L,R) ch, 192 kbps avg |Одноголосый (ТВ-6)|
Аудио #3: http//i32.fastpic.ru/big/2011/1013/5e/b0d0bcc854c707b9016eaa56c7d25e.gif 48 kHz, AC3 Dolby Digital, 2/0 (L,R) ch, 192 kbps avg |Авторский (Сергей Визгунов)|
Аудио #4: http//i32.fastpic.ru/big/2011/1013/1e/32fbc3b644a3be4be997d73c4ca7de1e.gif 48 kHz/24-bit, DTS, 3/2 (L,C,R,l,r) + LFE ch, 1509 kbps |Оригинал (кантонский)|
Размер: 6.74 GiB
Сэмпл: скачать

Source vs Gellard vs CHD
http//lostpic.net/thumbs_images/8/6/0/860b8408f1423c56e00285d02809646f.png http//lostpic.net/thumbs_images/8/8/2/8828664f32fb0b7edbd9d6821dd912ca.png http//lostpic.net/thumbs_images/6/4/5/645122ec7afaa62a00fe4dc0ec520d66.png
http//lostpic.net/thumbs_images/a/6/b/a6b2bcbae0d1d28b29dbfbc13cba019a.png http//lostpic.net/thumbs_images/a/e/3/ae3047f89f3aaa885513c96d7379534f.png http//lostpic.net/thumbs_images/1/c/8/1c84e606101b6367356733710d40bb7d.png
http//lostpic.net/thumbs_images/8/5/d/85d319ef9b17d92030b2b84e4f8512f9.png http//lostpic.net/thumbs_images/2/7/0/2707e0f7022aca32056ceca601065467.png http//lostpic.net/thumbs_images/7/f/1/7f1662c73d390914f7b3a34b19bd43ac.png
http//lostpic.net/thumbs_images/7/d/c/7dc97b8179843ab1969e5eed3f0388.png http//lostpic.net/thumbs_images/c/7/f/c7fa7e27142ef51fb7c9460581bd6242.png http//lostpic.net/thumbs_images/3/c/2/3c29fe12c5cdfd1e5c1006b107e4a90e.png



MediaInfo
General
Unique ID : 251528494413421109891032567186209481746 (0xBD3AA03CAB6A791E92784C99DD85A412)
Complete name : The.Fearless.Hyena.1979.720p.BluRay.3xRus.Chi.-HQCLUB.mkv
Format : Matroska
Format version : Version 4 / Version 2
File size : 6.74 GiB
Duration : 1h 37mn
Overall bit rate : 9 933 Kbps
Encoded date : UTC 2014-07-08 23:14:00
Writing application : mkvmerge v7.0.0 ('Where We Going') 32bit built on Jun 9 2014 15:08:34
Writing library : libebml v1.3.0 + libmatroska v1.4.1
DURATION : 01:37:08.256000000
NUMBER_OF_FRAMES : 182133
NUMBER_OF_BYTES : 139878144
_STATISTICS_WRITING_APP : mkvmerge v7.0.0 ('Where We Going') 32bit built on Jun 9 2014 15:08:34
_STATISTICS_WRITING_DATE_UTC : 2014-07-08 23:14:00
_STATISTICS_TAGS : BPS DURATION NUMBER_OF_FRAMES NUMBER_OF_BYTES

Video
ID : 1
Format : AVC
Format/Info : Advanced Video Codec
Format profile : High@L4.1
Format settings, CABAC : Yes
Format settings, ReFrames : 11 frames
Codec ID : V_MPEG4/ISO/AVC
Duration : 1h 37mn
Bit rate : 7 844 Kbps
Width : 1 280 pixels
Height : 544 pixels
Display aspect ratio : 2.35:1
Frame rate mode : Constant
Frame rate : 23.976 fps
Color space : YUV
Chroma subsampling : 4:2:0
Bit depth : 8 bits
Scan type : Progressive
Bits/(Pixel*Frame) : 0.470
Stream size : 5.19 GiB (77%)
Title : Бесстрашная гиена / Fearless Hyena / Xiao quan guai zhao (1979) BDRip 720p by HQCLUB | Encode by Gellard
Writing library : x264 core 142 r2431 ac76440
Encoding settings : cabac=1 / ref=11 / deblock=1:-3:-3 / analyse=0x3:0x113 / me=umh / subme=11 / psy=1 / psy_rd=1.20:0.00 / mixed_ref=1 / me_range=48 / chroma_me=1 / trellis=2 / 8x8dct=1 / cqm=0 / deadzone=21,11 / fast_pskip=1 / chroma_qp_offset=-4 / threads=9 / lookahead_threads=1 / sliced_threads=0 / nr=0 / decimate=1 / interlaced=0 / bluray_compat=0 / constrained_intra=0 / bframes=9 / b_pyramid=2 / b_adapt=2 / b_bias=0 / direct=1 / weightb=1 / open_gop=0 / weightp=2 / keyint=240 / keyint_min=23 / scenecut=40 / intra_refresh=0 / rc_lookahead=40 / rc=2pass / mbtree=0 / bitrate=7844 / ratetol=1.0 / qcomp=0.60 / qpmin=0 / qpmax=69 / qpstep=4 / cplxblur=20.0 / qblur=0.5 / vbv_maxrate=62500 / vbv_bufsize=50000 / nal_hrd=none / filler=0 / ip_ratio=1.40 / pb_ratio=1.30 / aq=1:0.90
Language : Chinese
Default : Yes
Forced : No
DURATION : 01:37:13.036000000
NUMBER_OF_FRAMES : 139853
NUMBER_OF_BYTES : 5719611675
_STATISTICS_WRITING_APP : mkvmerge v7.0.0 ('Where We Going') 32bit built on Jun 9 2014 15:08:34
_STATISTICS_WRITING_DATE_UTC : 2014-07-08 23:14:00
_STATISTICS_TAGS : BPS DURATION NUMBER_OF_FRAMES NUMBER_OF_BYTES

Audio #1
ID : 2
Format : AC-3
Format/Info : Audio Coding 3
Mode extension : CM (complete main)
Format settings, Endianness : Big
Codec ID : A_AC3
Duration : 1h 37mn
Bit rate mode : Constant
Bit rate : 192 Kbps
Channel count : 2 channels
Channel positions : Front: L R
Sampling rate : 48.0 KHz
Bit depth : 16 bits
Compression mode : Lossy
Stream size : 134 MiB (2%)
Title : AC3 2.0 @ 192 kbps - Двухголосый (ДТВ / СТС)
Language : Russian
Default : Yes
Forced : No

Audio #2
ID : 3
Format : AC-3
Format/Info : Audio Coding 3
Mode extension : CM (complete main)
Format settings, Endianness : Big
Codec ID : A_AC3
Duration : 1h 37mn
Bit rate mode : Constant
Bit rate : 192 Kbps
Channel count : 2 channels
Channel positions : Front: L R
Sampling rate : 48.0 KHz
Bit depth : 16 bits
Compression mode : Lossy
Stream size : 134 MiB (2%)
Title : AC3 2.0 @ 192 kbps - Одноголосый (ТВ-6)
Language : Russian
Default : No
Forced : No

Audio #3
ID : 4
Format : AC-3
Format/Info : Audio Coding 3
Mode extension : CM (complete main)
Format settings, Endianness : Big
Codec ID : A_AC3
Duration : 1h 37mn
Bit rate mode : Constant
Bit rate : 192 Kbps
Channel count : 2 channels
Channel positions : Front: L R
Sampling rate : 48.0 KHz
Bit depth : 16 bits
Compression mode : Lossy
Stream size : 134 MiB (2%)
Title : AC3 2.0 @ 192 kbps - Авторский (Сергей Визгунов)
Language : Russian
Default : No
Forced : No

Audio #4
ID : 5
Format : DTS
Format/Info : Digital Theater Systems
Mode : 16
Format settings, Endianness : Big
Codec ID : A_DTS
Duration : 1h 37mn
Bit rate mode : Constant
Bit rate : 1 509 Kbps
Channel count : 6 channels
Channel positions : Front: L C R, Side: L R, LFE
Sampling rate : 48.0 KHz
Bit depth : 24 bits
Compression mode : Lossy
Stream size : 1.02 GiB (15%)
Title : DTS 5.1 @ 1509 Kbps - Оригинал (кантонский)
Language : Chinese
Default : No
Forced : No

Text #1
ID : 6
Format : UTF-8
Codec ID : S_TEXT/UTF8
Codec ID/Info : UTF-8 Plain Text
Title : Английские
Language : English
Default : No
Forced : No

Text #2
ID : 7
Format : UTF-8
Codec ID : S_TEXT/UTF8
Codec ID/Info : UTF-8 Plain Text
Title : Китайские
Language : Chinese
Default : No
Forced : No

Menu
00:00:00.000 : en:00:00:00.000
00:04:52.125 : en:00:04:52.125
00:07:29.157 : en:00:07:29.157
00:14:32.246 : en:00:14:32.246
00:20:16.924 : en:00:20:16.924
00:24:10.574 : en:00:24:10.574
00:27:36.947 : en:00:27:36.947
00:31:53.286 : en:00:31:53.286
00:35:23.830 : en:00:35:23.830
00:41:38.413 : en:00:41:38.413
00:45:03.492 : en:00:45:03.492
00:49:14.118 : en:00:49:14.118
00:54:32.728 : en:00:54:32.728
00:58:15.033 : en:00:58:15.033
01:02:45.470 : en:01:02:45.470
01:07:38.054 : en:01:07:38.054
01:12:27.468 : en:01:12:27.468
01:18:09.435 : en:01:18:09.435
01:27:31.079 : en:01:27:31.079
01:36:41.379 : en:01:36:41.379
01:37:05.069 : en:01:37:05.069
x264 log
raw [info]: 1280x544p 1:1 @ 24000/1001 fps (cfr)
x264 [info]: using SAR=1/1
x264 [info]: using cpu capabilities: MMX2 SSE2Fast LZCNT
x264 [info]: profile High, level 4.1
264 [info]: frame I:834 Avg QP:18.11 size:113283
x264 [info]: frame P:31952 Avg QP:20.21 size: 59534
x264 [info]: frame B:107067 Avg QP:22.13 size: 34772
x264 [info]: consecutive B-frames: 2.1% 3.4% 9.6% 25.9% 14.0% 36.6% 4.5% 1.9% 1.3% 0.8%
x264 [info]: mb I I16..4: 0.3% 90.5% 9.2%
x264 [info]: mb P I16..4: 0.1% 29.9% 1.3% P16..4: 22.8% 30.8% 14.9% 0.0% 0.0% skip: 0.3%
x264 [info]: mb B I16..4: 0.0% 7.2% 0.2% B16..8: 34.8% 27.6% 8.0% direct:15.1% skip: 7.0% L0:43.7% L1:35.4% BI:21.0%
x264 [info]: 8x8 transform intra:95.6% inter:65.5%
x264 [info]: coded y,uvDC,uvAC intra: 99.1% 94.4% 74.2% inter: 75.0% 51.5% 8.6%
x264 [info]: i16 v,h,dc,p: 67% 13% 4% 16%
x264 [info]: i8 v,h,dc,ddl,ddr,vr,hd,vl,hu: 7% 6% 5% 11% 17% 15% 13% 13% 13%
x264 [info]: i4 v,h,dc,ddl,ddr,vr,hd,vl,hu: 6% 5% 3% 9% 20% 19% 15% 12% 11%
x264 [info]: i8c dc,h,v,p: 48% 19% 17% 17%
x264 [info]: Weighted P-Frames: Y:14.1% UV:2.2%
x264 [info]: ref P L0: 34.7% 13.6% 17.0% 8.0% 6.7% 4.9% 4.5% 2.8% 2.6% 2.2% 2.3% 0.6% 0.0%
x264 [info]: ref B L0: 66.0% 13.4% 6.5% 3.8% 2.9% 2.6% 2.1% 1.4% 0.8% 0.4%
x264 [info]: ref B L1: 91.8% 8.2%
x264 [info]: kb/s:7844.44
encoded 139853 frames, 4.62 fps, 7844.44 kb/s
Подробнее о рипе
Видео
Изначальный источник - Blu-Ray (Japan, Paramount Pictures, 2012) (blu-ray.com).
Обработка - Gellard.
Серые пиксельные полосы и дефекты пленки по краям были почищены с помощью FillMargins и BalanceBorders.

Профессиональный (двухголосый, закадровый) (ДТВ)
Изначальный источник - телеканал ДТВ. Предоставил - miha2154.
Синхронизация с Blu-Ray (чистка шума, правки) - Gellard.

Профессиональный (одноголосый, закадровый) (ТВ-6)
Изначальный источник - телеканал ТВ-6. Предоставил - jgorrr1, Sef.
Синхронизация с Blu-Ray - Ambulacetus (HDTracker).
В сети имеется также шестиканальная дорожка с переводом ТВ-6, где выделенные голоса были наложены на центральный канал оригинала. Не использована по причине низкого качества.

Авторский (Сергей Визгунов)
Изначальный источник - российский DVD5 от Викинг Видео. Предоставил - ilya29.
Синхронизация с Blu-Ray - Gellard.

Оригинал (китайский)
Изначальный источник - Blu-Ray (Japan, Paramount Pictures, 2012) (blu-ray.com).


http//bt.hqclub.net/files/ok.png Торрент: Бесстрашная гиена / Fearless Hyena / Xiao quan guai zhao (1979) BDRip 720p

Лучшая онлайн игра!


Публикация материалов сайта на сторонних ресурсах возможна только в неизменном виде.


Обсудить релиз на форуме

Вас также может заинтересовать:


  • 5
 (Голосов: 3)


Распечатать новость на принтере Боевик, Комедия
Обновлено: 9.07.2014 - 17:21

КОММЕНТАРИИ

 №1. ru4lan

Статус: Кинокритик | Новостей: 0 | Комментариев: 2736
ru4lan Xiao quan guai zhao!
~~~

9.07.2014 - 20:20   цитировать  

 №2. ru4lan

Статус: Кинокритик | Новостей: 0 | Комментариев: 2736
ru4lan 笑拳怪招!
~~~

9.07.2014 - 20:33   цитировать