Вас Приветствует Релиз-группа HQCLUB


Помощь ресурсу, очень ВАЖНО!!!



.


WELCOME
Добро пожаловать в наше интернет - сообщество!

Всех нас объединяет одна страсть - страсть к высококачественному кино. А это наш сайт. Ежедневно здесь мы публикуем десятки качественных, свежих, а порой и эксклюзивных релизов, которые Вы можете скачать совершенно бесплатно и без каких-либо регистраций. Посему рекомендуем Вам добавить HQClub себе в закладки, а также подписаться на нашу ленту новостей, чтобы всегда быть в курсе всех событий. Ну а если Вы такой же синий фил, как и мы, то милости просим на наш форум. И в заключение, попробуйте зарегистрироваться, ведь не так это и сложно и займет всего лишь пару минут! Вот увидите, Вам у нас понравится и Вы вольетесь в наш дружный коллектив! Ну а пока - осматривайтесь = )
Мы рады Вам !





Не шутите с Zоханом! / You Don't Mess with the Zohan (2008) BDRip 720p

Оформил: Elheym | 30 ноября 2014 - 23:07:06 | Обращений: 712 {bookmarks_news}

http//lostpic.net/orig_images/c/6/c/c6c56a5e05207307431d36bfce340b4d.jpg

Информация о фильме:
Название: Не шутите с Zоханом!
Оригинальное название: You Don't Mess with the Zohan
Год выхода: 2008
Жанр: боевик, комедия
Режиссер: Дэннис Дуган / Dennis Dugan
В ролях: Адам Сэндлер, Джон Туртурро, Эммануэль Шрики, Ник Свардсон, Лэйни Кэзан, Идо Муссари, Роб Шнайдер, Дэйв Мэтьюз, Майкл Баффер, Шарлотта Рэй

О фильме: Зохан — израильский коммандос, агент Моссада и антитеррорист — во время захвата известного мирового преступника инсценирует собственную гибель, дабы завязать с героическим прошлым и осуществить свою давнюю мечту: стать стилистом в Нью-Йорке. Вооружившись ножницами и желанным руководством, он решает начать свою карьеру в небольшом салоне.

Слава о повышенном внимании к деталям и оказании особого сервиса быстро распространяется среди представительниц прекрасного пола, и желающих оказаться в его кресле становится пруд пруди. Но внезапно его узнают и над романтически настроенным Зоханам нависает угроза потерять не только полюбившуюся карьеру, но на этот раз и собственную жизнь.

«Уложу любую...»



http//rating.kinopoisk.ru/280826.gif http//tracker.0day.kiev.ua/imdb/imdb_tt0960144.gif

Релиз от - http//hqclub.net/images/hqclub.png
Автор рипа: Elheym

Выпущено: США, Happy Madison, Relativity Media
Продолжительность: 01:52:47
Перевод : Профессиональный (полное дублирование)
Оригинальная аудио дорожка: английский
Субтитры: русские (полные, форсированные), украинские (форсированные), английские (полные, полные SDH)
Главы: присутствуют, сохранены оригинальные

Файл:
Формат: MKV
Качество: BDRip 720p (источник: / Blu-ray Disc / 1080p)
Видео: 1280x694 (1.85:1), 23.976 fps, MPEG-4 AVC, ~9010 kbps avg, 0.423 bit/pixel
Аудио #1: 48 kHz, AC3 Dolby Digital, 3/2 (L,C,R,l,r) + LFE ch, ~448 kbps avg (DUB)
Аудио #2: 48 kHz, AC3 Dolby Digital, 3/2 (L,C,R,l,r) + LFE ch, ~448 kbps avg (UKR)
Аудио #3: 48 kHz, DTS, 3/2 (L,C,R,l,r) + LFE ch, ~1510 kbps avg (ENG)
Размер: 8.98 GB
Сэмпл: скачать

http//lostpic.net/thumbs_images/b/e/7/be743991a4cf4bf0b08aaa5f065c81.png http//lostpic.net/thumbs_images/b/f/5/bf5f9f511f6dfb9eb4f3faefafc307.png http//lostpic.net/thumbs_images/3/6/7/367d5ce7b55b0eab29f14e6dd1d94d17.png http//lostpic.net/thumbs_images/3/8/5/3859441096b945f5834e110eb4cdc0.png http//lostpic.net/thumbs_images/5/1/a/51aa5bbf1696cfdc560951b506ad36d9.png

"MediaInfo"

Уникальный идентификатор : 189170042717299273638935626942775139675 (0x8E50D33237FA0668B3001780353D9D5B)
Полное имя : You.Don't.Mess.with.the.Zohan.2008.720p.BluRay.Rus.Ukr.Eng.-HQCLUB.mkv
Формат : Matroska
Версия формата : Version 2
Размер файла : 8,98 Гбайт
Продолжительность : 1 ч. 52 м.
Общий поток : 11,4 Мбит/сек
Дата кодирования : UTC 2014-11-30 17:11:56
Программа кодирования : mkvmerge v5.2.0 ('I can't explain') built on Dec 18 2011 18:12:03
Библиотека кодирования : libebml v1.2.3 + libmatroska v1.3.0

Видео
Идентификатор : 1
Формат : AVC
Формат/Информация : Advanced Video Codec
Профиль формата : High@L4.1
Параметр CABAC формата : Да
Параметр ReFrames формата : 7 кадров
Идентификатор кодека : V_MPEG4/ISO/AVC
Продолжительность : 1 ч. 52 м.
Битрейт : 9010 Кбит/сек
Ширина : 1280 пикселей
Высота : 694 пикселя
Соотношение сторон : 1,85:1
Режим частоты кадров : Постоянный
Частота кадров : 23,976 кадра/сек
Цветовое пространство : YUV
Субдискретизация насыщенности : 4:2:0
Битовая глубина : 8 бит
Тип развёртки : Прогрессивная
Бит/(Пиксели*Кадры) : 0.423
Размер потока : 6,91 Гбайт (77%)
Заголовок : Не шутите с Zоханом! / You Don't Mess with the Zohan (2008) BDRip 720p by HQCLUB [Elheym]
Библиотека кодирования : x264 core 142 r2479kMod dd79a61
Настройки программы : cabac=1 / ref=8 / deblock=1:-3:-2 / analyse=0x3:0x113 / me=umh / subme=11 / psy=1 / fade_compensate=0.00 / psy_rd=1.06:0.00 / mixed_ref=1 / me_range=32 / chroma_me=1 / trellis=2 / 8x8dct=1 / cqm=0 / deadzone=21,11 / fast_pskip=1 / chroma_qp_offset=-4 / threads=4 / lookahead_threads=1 / sliced_threads=0 / nr=0 / decimate=1 / interlaced=0 / bluray_compat=0 / constrained_intra=0 / fgo=0 / bframes=9 / b_pyramid=1 / b_adapt=2 / b_bias=0 / direct=3 / weightb=1 / open_gop=0 / weightp=2 / keyint=230 / keyint_min=23 / scenecut=40 / intra_refresh=0 / rc_lookahead=40 / rc=2pass / mbtree=0 / bitrate=9010 / ratetol=1.0 / qcomp=0.76 / qpmin=0 / qpmax=69 / qpstep=4 / cplxblur=20.0 / qblur=0.5 / vbv_maxrate=50000 / vbv_bufsize=62500 / nal_hrd=none / filler=0 / ip_ratio=1.40 / pb_ratio=1.30 / aq=1:0.90
Язык : English
Default : Да
Forced : Нет

Аудио #1
Идентификатор : 2
Формат : AC-3
Формат/Информация : Audio Coding 3
Расширение режима : CM (complete main)
Параметр Endianness формата : Big
Идентификатор кодека : A_AC3
Продолжительность : 1 ч. 52 м.
Вид битрейта : Постоянный
Битрейт : 448 Кбит/сек
Каналы : 6 каналов
Расположение каналов : Front: L C R, Side: L R, LFE
Частота : 48,0 КГц
Битовая глубина : 16 бит
Метод сжатия : С потерями
Размер потока : 361 Мбайт (4%)
Заголовок : АС3 5.1 @ 448 kbps - Dub
Язык : Russian
Default : Нет
Forced : Нет

Аудио #2
Идентификатор : 3
Формат : AC-3
Формат/Информация : Audio Coding 3
Расширение режима : CM (complete main)
Параметр Endianness формата : Big
Идентификатор кодека : A_AC3
Продолжительность : 1 ч. 52 м.
Вид битрейта : Постоянный
Битрейт : 448 Кбит/сек
Каналы : 6 каналов
Расположение каналов : Front: L C R, Side: L R, LFE
Частота : 48,0 КГц
Битовая глубина : 16 бит
Метод сжатия : С потерями
Размер потока : 361 Мбайт (4%)
Заголовок : АС3 5.1 @ 448 kbps - Dub
Язык : Ukrainian
Default : Нет
Forced : Нет

Аудио #3
Идентификатор : 4
Формат : DTS
Формат/Информация : Digital Theater Systems
Режим : 16
Параметр Endianness формата : Big
Идентификатор кодека : A_DTS
Продолжительность : 1 ч. 52 м.
Вид битрейта : Постоянный
Битрейт : 1510 Кбит/сек
Каналы : 6 каналов
Расположение каналов : Front: L C R, Side: L R, LFE
Частота : 48,0 КГц
Битовая глубина : 16 бит
Метод сжатия : С потерями
Размер потока : 1,19 Гбайт (13%)
Заголовок : DTS 5.1 @ 1510 kbps - Original
Язык : English
Default : Нет
Forced : Нет

Текст #1
Идентификатор : 5
Формат : UTF-8
Идентификатор кодека : S_TEXT/UTF8
Идентификатор кодека/Информация : UTF-8 Plain Text
Заголовок : Full
Язык : Russian
Default : Нет
Forced : Нет

Текст #2
Идентификатор : 6
Формат : UTF-8
Идентификатор кодека : S_TEXT/UTF8
Идентификатор кодека/Информация : UTF-8 Plain Text
Заголовок : Forced
Язык : Russian
Default : Да
Forced : Нет

Текст #3
Идентификатор : 7
Формат : UTF-8
Идентификатор кодека : S_TEXT/UTF8
Идентификатор кодека/Информация : UTF-8 Plain Text
Заголовок : Forced
Язык : Ukrainian
Default : Нет
Forced : Нет

Текст #4
Идентификатор : 8
Формат : UTF-8
Идентификатор кодека : S_TEXT/UTF8
Идентификатор кодека/Информация : UTF-8 Plain Text
Заголовок : Full
Язык : English
Default : Нет
Forced : Нет

Текст #5
Идентификатор : 9
Формат : UTF-8
Идентификатор кодека : S_TEXT/UTF8
Идентификатор кодека/Информация : UTF-8 Plain Text
Заголовок : Full SDH
Язык : English
Default : Нет
Forced : Нет

Меню
00:00:00.000 : :Chapter 01
00:07:48.092 : :Chapter 02
00:13:38.567 : :Chapter 03
00:19:05.102 : :Chapter 04
00:26:58.616 : :Chapter 05
00:32:23.232 : :Chapter 06
00:39:54.934 : :Chapter 07
00:45:55.669 : :Chapter 08
00:52:45.662 : :Chapter 09
01:00:40.470 : :Chapter 10
01:08:39.448 : :Chapter 11
01:16:13.485 : :Chapter 12
01:22:58.681 : :Chapter 13
01:28:34.225 : :Chapter 14
01:35:21.465 : :Chapter 15
01:44:36.269 : :Chapter 16

"x264 log"

x264 [info]: frame I:2019 Avg QP:14.81 size:207916
x264 [info]: frame P:40706 Avg QP:16.89 size: 83918
x264 [info]: frame B:119539 Avg QP:18.87 size: 31544

x264 [info]: consecutive B-frames: 3.2% 6.2% 6.8% 43.4% 13.8% 18.3% 3.9% 3.5% 0.3% 0.5%

x264 [info]: ref P L0: 59.7% 14.4% 11.4% 5.2% 3.8% 2.9% 2.3% 0.2% 0.0%
x264 [info]: ref B L0: 90.0% 5.1% 2.4% 1.2% 0.9% 0.5%
x264 [info]: ref B L1: 96.0% 4.0%


Ссылки для скачивания:

http//bt.hqclub.net/files/ok.png Торрент: Не шутите с Zоханом! / You Don't Mess with the Zohan (2008) BDRip 720p

Лучшая онлайн игра!


Публикация материалов сайта на сторонних ресурсах возможна только в неизменном виде.


Обсудить релиз на форуме

Вас также может заинтересовать:


  • 4
 (Голосов: 2)


Распечатать новость на принтере Боевик, Комедия