Вас Приветствует Релиз-группа HQCLUB


Помощь ресурсу, очень ВАЖНО!!!



.


WELCOME
Добро пожаловать в наше интернет - сообщество!

Всех нас объединяет одна страсть - страсть к высококачественному кино. А это наш сайт. Ежедневно здесь мы публикуем десятки качественных, свежих, а порой и эксклюзивных релизов, которые Вы можете скачать совершенно бесплатно и без каких-либо регистраций. Посему рекомендуем Вам добавить HQClub себе в закладки, а также подписаться на нашу ленту новостей, чтобы всегда быть в курсе всех событий. Ну а если Вы такой же синий фил, как и мы, то милости просим на наш форум. И в заключение, попробуйте зарегистрироваться, ведь не так это и сложно и займет всего лишь пару минут! Вот увидите, Вам у нас понравится и Вы вольетесь в наш дружный коллектив! Ну а пока - осматривайтесь = )
Мы рады Вам !





Ночной беглец / Run All Night (2015) BDRip-AVC

Оформил: Elheym | 11 июля 2015 - 23:41:54 | Обращений: 643 {bookmarks_news}

http//lostpic.net/orig_images/6/5/8/658c3276b29ffa44c74550e5f2c32cf8.jpg

Информация о фильме:
Название: Ночной беглец
Оригинальное название: Run All Night
Год выхода: 2015
Жанр: боевик, криминал, драма
Режиссер: Хауме Кольет-Серра / Jaume Collet-Serra
В ролях: Лиам Нисон, Юэль Киннаман, Коммон, Эд Харрис, Бойд Холбрук, Брюс МакГилл, Дженезис Родригез, Винсент Д’Онофрио, Луис Смит, Бо Напп

О фильме: Фильм расскажет историю киллера, вступившего в конфликт с бывшим боссом и в итоге вынужденного пуститься в бега, чтобы защитить свою семью от преследования мафией и властями.

«Одна ночь, чтобы свести счёты»



http//rating.kinopoisk.ru/662469.gif http//tracker.0day.kiev.ua/imdb/imdb_tt21991.gif

Релиз от - http//hqclub.net/images/hqclub.png
Автор рипа: Elheym

Выпущено: США ‖ Energy Entertainment, RatPac-Dune Entertainment, Vertigo Entertainment
Продолжительность: 01:54:21
Перевод: Профессиональный (полное дублирование) BD EUR
Оригинальная аудиодорожка: английская
Субтитры: русские (полные, форсированные: BD, iTunes), украинские (полные: iTunes), английские (полные, форсированные, SDH, SDH цветные)
Главы: присутствуют, сохранены оригинальные

Дополнительные аудиодорожки:
+ Авторский (одноголосый, закадровый) А. Гаврилов
+ Одноголосый (закадровый) М. Яроцкий a.k.a kyberpunk
+ Одноголосый (закадровый) Д. Есарев

Файл:
Формат: MKV
Качество: BDRip-AVC (источник: http//i28.fastpic.ru/big/2011/1013/a8/a3d28e80c9544f4c572189fc892ea8.gif / Blu-ray EUR [RUN_ALL_NIGHT_HDCLUB] / 1080p)
Видео: 1152x480 (2.40:1), 23.976 fps, MPEG-4 AVC, ~4500 kbps avg, 0.339 bit/pixel
Аудио #1: 48 kHz, AC3 Dolby Digital, 3/2 (L,C,R,l,r) + LFE ch, ~448 kbps avg (DUB)
Аудио #2: 48 kHz, AC3 Dolby Digital, 3/2 (L,C,R,l,r) + LFE ch, ~448 kbps avg (ENG)
Аудио #3: 48 kHz, AC3 Dolby Digital, 3/2 (L,C,R,l,r) + LFE ch, ~448 kbps avg (AVO.GAVRILOV) (отдельно)
Аудио #4: 48 kHz, AC3 Dolby Digital, 3/2 (L,C,R,l,r) + LFE ch, ~448 kbps avg (VO.JAROCKIJ) (отдельно)
Аудио #5: 48 kHz, AC3 Dolby Digital, 3/2 (L,C,R,l,r) + LFE ch, ~448 kbps avg (VO.ESAREV) (отдельно)
Сэмпл: скачать

http//lostpic.net/thumbs_images/8/c/b/8cb2f9fabf79650603c0fc0d60407d6f.png http//lostpic.net/thumbs_images/9/2/2/9229c21b2812e25a222d37ea459d.png http//lostpic.net/thumbs_images/7/b/7/7b74dbdf7f7925b80de7005384dc97a1.png http//lostpic.net/thumbs_images/3/1/6/3160d30438d5d9ee6c66dca50719fbb2.png http//lostpic.net/thumbs_images/d/1/3/d13a53f8bde96c7d9e47aeca6e45a077.png http//lostpic.net/thumbs_images/1/b/2/1b26e1faed45ac24a6b4fb541f76.png

"MediaInfo"

Уникальный идентификатор : 254411609087417946898939989100346107370 (0xBF65E4C3E51BCCA8B9E6E37373E665EA)
Полное имя : Run.All.Night.2015.DUAL.BDRip-AVC.x264.AC3.-HQCLUB.mkv
Формат : Matroska
Версия формата : Version 2
Размер файла : 4,31 Гбайт
Продолжительность : 1 ч. 54 м.
Общий поток : 5396 Кбит/сек
Название фильма : Ночной беглец / Run All Night (2015) BDRip-AVC by HQCLUB [Elheym]
Дата кодирования : UTC 2015-07-11 16:03:23
Программа кодирования : mkvmerge v5.2.0 ('I can't explain') built on Dec 18 2011 18:12:03
Библиотека кодирования : libebml v1.2.3 + libmatroska v1.3.0
Attachements : Cover.jpg

Видео
Идентификатор : 1
Формат : AVC
Формат/Информация : Advanced Video Codec
Профиль формата : High@L4
Параметр CABAC формата : Да
Параметр ReFrames формата : 14 кадров
Идентификатор кодека : V_MPEG4/ISO/AVC
Продолжительность : 1 ч. 54 м.
Битрейт : 4500 Кбит/сек
Ширина : 1152 пикселя
Высота : 480 пикселей
Соотношение сторон : 2,40:1
Режим частоты кадров : Постоянный
Частота кадров : 23,976 кадра/сек
Цветовое пространство : YUV
Субдискретизация насыщенности : 4:2:0
Битовая глубина : 8 бит
Тип развёртки : Прогрессивная
Бит/(Пиксели*Кадры) : 0.339
Размер потока : 3,51 Гбайт (81%)
Заголовок : Ночной беглец / Run All Night (2015) BDRip-AVC by HQCLUB [Elheym]
Библиотека кодирования : x264 core 146 r0+2586 e393126 t_mod_Custom [8-bit@all X86_64]
Настройки программы : cabac=1 / ref=14 / deblock=1:-2:-2 / analyse=0x3:0x113 / me=umh / subme=11 / psy=1 / fade_compensate=0.00 / psy_rd=1.10:0.15 / mixed_ref=1 / me_range=32 / chroma_me=1 / trellis=2 / 8x8dct=1 / cqm=0 / deadzone=21,11 / fast_pskip=0 / chroma_qp_offset=-3 / threads=6 / lookahead_threads=2 / sliced_threads=0 / nr=0 / decimate=0 / interlaced=0 / bluray_compat=0 / constrained_intra=0 / fgo=0 / bframes=12 / b_pyramid=2 / b_adapt=2 / b_bias=0 / direct=3 / weightb=1 / open_gop=0 / weightp=2 / keyint=240 / keyint_min=23 / scenecut=40 / intra_refresh=0 / rc_lookahead=80 / rc=2pass / mbtree=0 / bitrate=4500 / ratetol=1.0 / qcomp=0.85 / qpmin=0:0:0 / qpmax=69:69:69 / qpstep=4 / cplxblur=20.0 / qblur=0.5 / vbv_maxrate=20000 / vbv_bufsize=25000 / nal_hrd=none / filler=0 / ip_ratio=1.40 / pb_ratio=1.30 / aq=2:0.70 / aq-sensitivity=10.00 / aq-factor=1.00:1.00:1.00 / aq2=0 / aq3=4:[0.50:0.50]:[0.50:0.50]:[0.50:0.50]:[0.50:0.50] / aq3-sensitivity=10.00 / aq3-factor=[1.00:1.00]:[1.00:1.00]:[1.00:1.00] / aq3-boundary=192:64:24 / zones=158534,164512,b=0.34
Язык : English
Default : Да
Forced : Нет

Аудио #1
Идентификатор : 2
Формат : AC-3
Формат/Информация : Audio Coding 3
Расширение режима : CM (complete main)
Параметр Endianness формата : Big
Идентификатор кодека : A_AC3
Продолжительность : 1 ч. 54 м.
Вид битрейта : Постоянный
Битрейт : 448 Кбит/сек
Каналы : 6 каналов
Расположение каналов : Front: L C R, Side: L R, LFE
Частота : 48,0 КГц
Метод сжатия : С потерями
Размер потока : 366 Мбайт (8%)
Заголовок : АС3 5.1 @ 448 kbps - Dub, BD EUR
Язык : Russian
Default : Нет
Forced : Нет

Аудио #2
Идентификатор : 3
Формат : AC-3
Формат/Информация : Audio Coding 3
Расширение режима : CM (complete main)
Параметр Endianness формата : Big
Идентификатор кодека : A_AC3
Продолжительность : 1 ч. 54 м.
Вид битрейта : Постоянный
Битрейт : 448 Кбит/сек
Каналы : 6 каналов
Расположение каналов : Front: L C R, Side: L R, LFE
Частота : 48,0 КГц
Метод сжатия : С потерями
Размер потока : 366 Мбайт (8%)
Заголовок : АС3 5.1 @ 448 kbps - Original
Язык : English
Default : Нет
Forced : Нет

Текст #1
Идентификатор : 4
Формат : UTF-8
Идентификатор кодека : S_TEXT/UTF8
Идентификатор кодека/Информация : UTF-8 Plain Text
Заголовок : Full, BD
Язык : Russian
Default : Нет
Forced : Нет

Текст #2
Идентификатор : 5
Формат : UTF-8
Идентификатор кодека : S_TEXT/UTF8
Идентификатор кодека/Информация : UTF-8 Plain Text
Заголовок : Full, iTunes
Язык : Russian
Default : Нет
Forced : Нет

Текст #3
Идентификатор : 6
Формат : UTF-8
Идентификатор кодека : S_TEXT/UTF8
Идентификатор кодека/Информация : UTF-8 Plain Text
Заголовок : Forced, iTunes
Язык : Russian
Default : Нет
Forced : Нет

Текст #4
Идентификатор : 7
Формат : UTF-8
Идентификатор кодека : S_TEXT/UTF8
Идентификатор кодека/Информация : UTF-8 Plain Text
Заголовок : Full, iTunes
Язык : Ukrainian
Default : Нет
Forced : Нет

Текст #5
Идентификатор : 8
Формат : UTF-8
Идентификатор кодека : S_TEXT/UTF8
Идентификатор кодека/Информация : UTF-8 Plain Text
Заголовок : Full
Язык : English
Default : Нет
Forced : Нет

Текст #6
Идентификатор : 9
Формат : UTF-8
Идентификатор кодека : S_TEXT/UTF8
Идентификатор кодека/Информация : UTF-8 Plain Text
Заголовок : SDH
Язык : English
Default : Нет
Forced : Нет

Текст #7
Идентификатор : 10
Формат : UTF-8
Идентификатор кодека : S_TEXT/UTF8
Идентификатор кодека/Информация : UTF-8 Plain Text
Заголовок : SDH Colored
Язык : English
Default : Нет
Forced : Нет

Меню
00:00:00.000 : :Chapter 01
00:05:00.000 : :Chapter 02
00:10:00.000 : :Chapter 03
00:15:00.000 : :Chapter 04
00:20:00.000 : :Chapter 05
00:25:00.000 : :Chapter 06
00:30:00.000 : :Chapter 07
00:35:00.000 : :Chapter 08
00:40:00.000 : :Chapter 09
00:45:00.000 : :Chapter 10
00:50:00.000 : :Chapter 11
00:55:00.000 : :Chapter 12
01:00:00.000 : :Chapter 13
01:05:00.000 : :Chapter 14
01:10:00.000 : :Chapter 15
01:15:00.000 : :Chapter 16
01:20:00.000 : :Chapter 17
01:25:00.000 : :Chapter 18
01:30:00.000 : :Chapter 19

"x264 log"

x264 [info]: frame I:1818 Avg QP:15.18 size: 91276
x264 [info]: frame P:38420 Avg QP:17.62 size: 40728
x264 [info]: frame B:124275 Avg QP:19.31 size: 17108

x264 [info]: consecutive B-frames: 3.6% 4.2% 8.7% 24.5% 16.6% 27.2% 5.8% 4.7% 1.7% 0.8% 0.6% 1.0% 0.5%

x264 [info]: ref P L0: 46.3% 7.7% 18.6% 6.6% 5.7% 3.7% 3.2% 1.5% 1.5% 1.2% 1.1% 0.9% 0.9% 0.8% 0.2% 0.0%
x264 [info]: ref B L0: 74.4% 11.8% 5.1% 2.5% 1.8% 1.3% 0.9% 0.6% 0.5% 0.4% 0.3% 0.2% 0.1%
x264 [info]: ref B L1: 92.8% 7.2%

Цитата:

За перевод А. Гаврилова большое спасибо пользователям форума hdtracker:
Gross1978; Hattori Hanzo; marlboro-man; dwser; dunhill200; _MyxAmoP_; нетработе; Vimann; Brown15; Sonny Black; karantin66; Pain_70; Letyoha3; KerkP; GaryH; gtjuve; chef&chef; Chistobaev; nimph; Loki; Role; KR0Tik; Tagansky; kolibri2; fly32; vovyanskiy; saenwert; audiolubitel; Shumway
Перевод Михаила Яроцкого доступен благодаря: dikii. Работа со звуком: Переводман.
Перевод Дмитрия Есарева доступен благодаря: mihey10. Работа со звуком: mihaildns.
Переводы: Михаила Яроцкого и Дмитрия Есарева - содержат нецензурную лексику!


Ссылки для скачивания:

http//bt.hqclub.net/files/ok.png Торрент: Ночной беглец / Run All Night (2015) BDRip-AVC

Лучшая онлайн игра!


Публикация материалов сайта на сторонних ресурсах возможна только в неизменном виде.


Обсудить релиз на форуме

Вас также может заинтересовать:


  • 5
 (Голосов: 4)


Распечатать новость на принтере Боевик, Криминал, Драма
Обновлено: 12.07.2015 - 22:39