Вас Приветствует Релиз-группа HQCLUB


Помощь ресурсу, очень ВАЖНО!!!



.


WELCOME
Добро пожаловать в наше интернет - сообщество!

Всех нас объединяет одна страсть - страсть к высококачественному кино. А это наш сайт. Ежедневно здесь мы публикуем десятки качественных, свежих, а порой и эксклюзивных релизов, которые Вы можете скачать совершенно бесплатно и без каких-либо регистраций. Посему рекомендуем Вам добавить HQClub себе в закладки, а также подписаться на нашу ленту новостей, чтобы всегда быть в курсе всех событий. Ну а если Вы такой же синий фил, как и мы, то милости просим на наш форум. И в заключение, попробуйте зарегистрироваться, ведь не так это и сложно и займет всего лишь пару минут! Вот увидите, Вам у нас понравится и Вы вольетесь в наш дружный коллектив! Ну а пока - осматривайтесь = )
Мы рады Вам !





Инкассатор / Armored (2009) BDRip-AVC

Оформил: DaniLch | 16 сентября 2011 - 10:42:50 | Комментариев: 2 | Обращений: 2674 {bookmarks_news}

http//lostpic.net/images/d089e9bd75a7fd7245b4368dc9735402.png

Название: Инкассатор
Оригинальное название: Armored
Год выхода: 2009
Жанр: боевик, триллер, криминал
Режиссер: Нимрод Антал / Nimrod Antal
В ролях: Мэтт Диллон, Жан Рено, Лоренс Фишбёрн, Амори Ноласко, Фред Уорд, Майло Вентимилья, Скит Ульрих, Коламбус Шорт, Андре Кинни, Эндрю Фисцелла

О фильме: Ветеран боевых действий Тай Хэккет возвращается домой после службы в Ираке. В поисках средств к существованию и желания должной заботы о своём младшем брате, Тай вынужден перебиваться с работы на работу.

Однажды он поступает на инкассаторскую службу, где от старого друга семьи Майка получает, казалось бы, выгодное предложение, — обокрасть свой же эскорт с деньгами, когда будет перевозиться особо крупная сумма денег. Колеблясь, и не зная, как вести себя в этой ситуации, Хэккет всё же солашается на операцию, после того, как органы опеки делают попытки забрать его брата в приют под предлогом «лучшей заботы о мальчике».

Всё же согласившись на преступление, честный и справедливый солдат идёт на компромисс — никаких жертв, никаких трупов. Когда же всё пошло не так, Тай Хэккет встаёт по ту сторону «своих», любой ценой предотвращая идеально спланированную кражу денег и исключая появление всё новых жертв. Один против нескольких, — сможет ли он победить? Борьба не на жизнь, а на смерть начинается…

http//www.kinopoisk.ru/rating/310858.gif

Релиз от - http//hqclub.net/images/hqclub.png
Автор рипа: DaniLch

Выпущено: http//lostpic.net/images/ac5cb4a618da65239cf7be53b9ab78.gif США | Screen Gems
Продолжительность: 01:27:53

Источник: Blu-ray CEE 1080p -muzvoz
Контейнер: MKV
Видео: 1152x480 (2.40:1), 23.976 fps, x264@L4.0, crf, ~3025 kbps
Аудио #1: Russian: 48 kHz, AC3 Dolby Digital, 3/2 (L,C,R,l,r) + LFE ch, ~448 kbps |Многоголосый закадровый, R5 «ВидеоСервис»|
Аудио #2: English: 48 kHz, AC3 Dolby Digital, 3/2 (L,C,R,l,r) + LFE ch, ~448 kbps
Субтитры: русские, английские
Размер: 2.45 Gb

http//lostpic.net/images/8ac58c47168f25026be800d519b61694.png

http//lostpic.net/thumbs/f62c3f502ea81c622fea27bde94bd314.png http//lostpic.net/thumbs/6805d382378101a7586b216501e7e29e.png http//lostpic.net/thumbs/9c429a8fee429f7f5914782793260451.png http//lostpic.net/thumbs/0f9ba08d2c6f78375a26e81b5189809e.png

http//bt.hqclub.net/files/ok.png Торрент: Инкассатор / Armored (2009) BDRip-AVC

MediaInfo
General
Complete name : Inkassator.2009.BDRip-AVC.H264.AC3.-HQCLUB.mkv
Format : Matroska
File size : 2.46 GiB
Duration : 1h 27mn
Overall bit rate : 4 000 Kbps
Movie name : Rip by DaniLch | HQCLUB.NET
Encoded date : UTC 2011-09-14 06:05:38
Writing application : mkvmerge v4.9.1 ('Ich will') built on Jul 11 2011 23:53:15
Writing library : libebml v1.2.1 + libmatroska v1.1.1

Video
ID : 1
Format : AVC
Format/Info : Advanced Video Codec
Format profile : High@L4.0
Format settings, CABAC : Yes
Format settings, ReFrames : 7 frames
Codec ID : V_MPEG4/ISO/AVC
Duration : 1h 27mn
Bit rate : 3 025 Kbps
Width : 1 152 pixels
Height : 480 pixels
Display aspect ratio : 2.40:1
Frame rate : 23.976 fps
Color space : YUV
Chroma subsampling : 4:2:0
Bit depth : 8 bits
Scan type : Progressive
Bits/(Pixel*Frame) : 0.228
Stream size : 1.86 GiB (76%)
Title : Armored (2009)
Writing library : x264 core 116 r2074 2641b9e
Encoding settings : cabac=1 / ref=7 / deblock=1:-3:-3 / analyse=0x3:0x113 / me=umh / subme=10 / psy=1 / psy_rd=1.00:0.05 / mixed_ref=1 / me_range=32 / chroma_me=1 / trellis=2 / 8x8dct=1 / cqm=0 / deadzone=21,11 / fast_pskip=0 / chroma_qp_offset=0 / threads=6 / sliced_threads=0 / nr=0 / decimate=1 / interlaced=0 / bluray_compat=0 / constrained_intra=0 / bframes=6 / b_pyramid=2 / b_adapt=2 / b_bias=0 / direct=3 / weightb=1 / open_gop=0 / weightp=2 / keyint=250 / keyint_min=23 / scenecut=40 / intra_refresh=0 / rc_lookahead=40 / rc=crf / mbtree=0 / crf=17.1 / qcomp=0.60 / qpmin=10 / qpmax=51 / qpstep=4 / vbv_maxrate=20000 / vbv_bufsize=20000 / crf_max=0.0 / nal_hrd=none / ip_ratio=1.40 / pb_ratio=1.30 / aq=1:0.70
Language : English

Audio #1
ID : 2
Format : AC-3
Format/Info : Audio Coding 3
Mode extension : CM (complete main)
Codec ID : A_AC3
Duration : 1h 27mn
Bit rate mode : Constant
Bit rate : 448 Kbps
Channel(s) : 6 channels
Channel positions : Front: L C R, Side: L R, LFE
Sampling rate : 48.0 KHz
Bit depth : 16 bits
Compression mode : Lossy
Stream size : 282 MiB (11%)
Title : AC3 5.1 @ 448 kbps - Многоголосый закадровый, R5
Language : Russian

Audio #2
ID : 3
Format : AC-3
Format/Info : Audio Coding 3
Mode extension : CM (complete main)
Codec ID : A_AC3
Duration : 1h 27mn
Bit rate mode : Constant
Bit rate : 448 Kbps
Channel(s) : 6 channels
Channel positions : Front: L C R, Side: L R, LFE
Sampling rate : 48.0 KHz
Bit depth : 16 bits
Compression mode : Lossy
Stream size : 282 MiB (11%)
Title : AC3 5.1 @ 448 kbps
Language : English

Text #1
ID : 4
Format : UTF-8
Codec ID : S_TEXT/UTF8
Codec ID/Info : UTF-8 Plain Text
Language : Russian

Text #2
ID : 5
Format : UTF-8
Codec ID : S_TEXT/UTF8
Codec ID/Info : UTF-8 Plain Text
Language : English


Лучшая онлайн игра!


Публикация материалов сайта на сторонних ресурсах возможна только в неизменном виде.


Обсудить релиз на форуме

Вас также может заинтересовать:


  • 4
 (Голосов: 10)


Распечатать новость на принтере Боевик, Криминал, Триллер
Обновлено: 16.09.2011 - 10:48

КОММЕНТАРИИ

 №1. Marshall Mathers

Статус: Кинокритик | Новостей: 0 | Комментариев: 468
Marshall Mathers Люди, сделайте пожалуйста сборник всех фильмов о Гарри Поттере ( в режиссерской версии с добавлением новых кадров ) Ну можете уже подождать, когда выйдет последняя часть и вместе с ней сделать весь сборник. Буду вам очень очень благодарен. Да и не только я, да и все пользователи HQCLUB'a! Заранее спасибо.
~~~

17.09.2011 - 18:57   цитировать  

 №2. HardReset

Статус: Новичок | Новостей: 0 | Комментариев: 19
HardReset неплохой фильм, рекомендую к просмотру))
~~~

19.09.2011 - 22:36   цитировать