Вас Приветствует Релиз-группа HQCLUB


Помощь ресурсу, очень ВАЖНО!!!



.


WELCOME
Добро пожаловать в наше интернет - сообщество!

Всех нас объединяет одна страсть - страсть к высококачественному кино. А это наш сайт. Ежедневно здесь мы публикуем десятки качественных, свежих, а порой и эксклюзивных релизов, которые Вы можете скачать совершенно бесплатно и без каких-либо регистраций. Посему рекомендуем Вам добавить HQClub себе в закладки, а также подписаться на нашу ленту новостей, чтобы всегда быть в курсе всех событий. Ну а если Вы такой же синий фил, как и мы, то милости просим на наш форум. И в заключение, попробуйте зарегистрироваться, ведь не так это и сложно и займет всего лишь пару минут! Вот увидите, Вам у нас понравится и Вы вольетесь в наш дружный коллектив! Ну а пока - осматривайтесь = )
Мы рады Вам !





Последний рубеж / Homefront (2013) BDRip 1080p

Оформил: Elheym | 2 июля 2014 - 21:37:21 | Комментариев: 1 | Обращений: 799 {bookmarks_news}

http//lostpic.net/orig_images/1/8/0/180e73fb97e2e69a4087d77e34d94f.jpg

Информация о фильме:
Название: Последний рубеж
Оригинальное название: Homefront
Год выхода: 2013
Жанр: Боевик, криминал
Режиссер: Гэри Фледер
В ролях: Джейсон Стэйтем, Джеймс Франко, Изабела Видович, Вайнона Райдер, Кейт Босворт, Клэнси Браун, Рашель Лефевр, Омар Бенсон Миллер, Маркус Хестер, Фрэнк Грилло

О фильме: Фил Брокер — бывший агент из отдела борьбы с наркотиками. Фил переезжает в небольшой город вместе с семьей в надежде забыть прошлое. Но он узнает, что город только со стороны кажется тихим и спокойным местом, на самом деле он кишит насилием, наркотиками, а всем этим заправляет злодей по кличке Аллигатор…

«На что ты готов ради защиты своей семьи?»



http//rating.kinopoisk.ru/683766.gif http//tracker.0day.kiev.ua/imdb/imdb_tt2312718.gif

Релиз от - http//hqclub.net/images/hqclub.png
Автор рипа: Elheym

Выпущено: США, Homefront Productions, Millennium Films, Mojo Films
Продолжительность: 01:40:34
Перевод 1: Профессиональный (полное дублирование)
Перевод 2: Авторский (одноголосый, закадровый) А. Гаврилов
Перевод 3: Авторский (одноголосый, закадровый) Д. Есарев**
Оригинальная аудиодорожка: Английский
Субтитры: Русские** (полные, ненормативная лексика), Английские (полные), Английские (полные SDH), Английские (полные SDH-Colored)
Главы: Присутствуют, сохранены оригинальные

Цитата:

*** За перевод Гаврилова большое спасибо пользователям форума hdtracker.org:
Denis2251, -Джосс-, KpucTo161, _MyxAmoP_, SavineX, rydanes, dunhill200, Tehnar, chef&chef, milocerd0v, fly32, foxlight, Luka69, Role, nimph, ASUKEVICH, Loki, therox, Brown15,
Диммон, Pain_70, carter64, edsz, shtift, Wolf_Larsen, Letyoha3, Xerman13, Rolly Tyler, feldeger, Iron Man, GaryH, dwser, Hattori Hanzo, audiolubitel.

*** За перевод Дмитрия Есарева большое спасибо пользователю: mihey10.

** - фигурирует ненормативная лексика.


Файл:
Формат: MKV
Качество: BDRip 1080p (источник: bluebird / Blu-ray Disc / 1080p)
Видео: 1920x800 (2.40:1), 23.976 fps, MPEG-4 AVC, ~10930 kbps avg, 0.297 bit/pixel
Аудио #1: 48 kHz, DTS, 3/2 (L,C,R,l,r) + LFE ch, ~1509 kbps (DUB)
Аудио #2: 48 kHz, DTS, 3/2 (L,C,R,l,r) + LFE ch, ~1509 kbps (AVO.GAVRILOV)
Аудио #3: 48 kHz, DTS, 3/2 (L,C,R,l,r) + LFE ch, ~1510 kbps (AVO.ESAREV)**
Аудио #4: 48 kHz, DTS, 3/2 (L,C,R,l,r) + LFE ch, ~1509 kbps (ENG)
Размер:11.9 GB
Сэмпл: скачать

http//lostpic.net/thumbs_images/a/f/b/afb80d1edec5b17e99fa89de77c66c40.png http//lostpic.net/thumbs_images/b/f/8/bf8cdaab87192221cba9a216972d7e.png http//lostpic.net/thumbs_images/d/0/a/d0aba3c8741974b3f6d99ef2520d0d.png http//lostpic.net/thumbs_images/d/a/9/da98f0cc8319d8d9cd096976cc8c99a7.png http//lostpic.net/thumbs_images/3/3/0/33033cfb005d937507e715dd26acf443.png

"MediaInfo"
Уникальный идентификатор : 254782771475934056284278211595716939448 (0xBFAD607BDC0D331C9F772975EB0A4EB8)
Полное имя : Homefront.2013.1080p.BluRay.3xRus.Eng.-HQCLUB.mkv
Формат : Matroska
Версия формата : Version 2
Размер файла : 11,9 Гбайт
Продолжительность : 1 ч. 40 м.
Общий поток : 17,0 Мбит/сек
Дата кодирования : UTC 2014-07-01 22:03:43
Программа кодирования : mkvmerge v5.2.0 ('I can't explain') built on Dec 18 2011 18:12:03
Библиотека кодирования : libebml v1.2.3 + libmatroska v1.3.0

Видео
Идентификатор : 1
Формат : AVC
Формат/Информация : Advanced Video Codec
Профиль формата : High@L4.1
Параметр CABAC формата : Да
Параметр ReFrames формата : 5 кадров
Идентификатор кодека : V_MPEG4/ISO/AVC
Продолжительность : 1 ч. 40 м.
Битрейт : 10,9 Мбит/сек
Ширина : 1920 пикселей
Высота : 800 пикселей
Соотношение сторон : 2,40:1
Режим частоты кадров : Постоянный
Частота кадров : 23,976 кадра/сек
Цветовое пространство : YUV
Субдискретизация насыщенности : 4:2:0
Битовая глубина : 8 бит
Тип развёртки : Прогрессивная
Бит/(Пиксели*Кадры) : 0.297
Размер потока : 7,44 Гбайт (62%)
Заголовок : Последний рубеж / Homefront (2013) BDRip 1080p by HQCLUB [Elheym]
Библиотека кодирования : x264 core 142 r2431 ac76440
Настройки программы : cabac=1 / ref=5 / deblock=1:-3:-2 / analyse=0x3:0x113 / me=umh / subme=11 / psy=1 / psy_rd=1.20:0.00 / mixed_ref=1 / me_range=32 / chroma_me=1 / trellis=2 / 8x8dct=1 / cqm=0 / deadzone=21,11 / fast_pskip=1 / chroma_qp_offset=-4 / threads=6 / lookahead_threads=1 / sliced_threads=0 / nr=0 / decimate=1 / interlaced=0 / bluray_compat=0 / constrained_intra=0 / bframes=10 / b_pyramid=2 / b_adapt=2 / b_bias=0 / direct=3 / weightb=1 / open_gop=0 / weightp=2 / keyint=240 / keyint_min=23 / scenecut=40 / intra_refresh=0 / rc_lookahead=40 / rc=2pass / mbtree=0 / bitrate=10930 / ratetol=1.0 / qcomp=0.60 / qpmin=10 / qpmax=69 / qpstep=4 / cplxblur=20.0 / qblur=0.5 / vbv_maxrate=50000 / vbv_bufsize=62500 / nal_hrd=none / filler=0 / ip_ratio=1.40 / pb_ratio=1.30 / aq=1:0.90
Язык : English
Default : Да
Forced : Нет

Аудио #1
Идентификатор : 2
Формат : DTS
Формат/Информация : Digital Theater Systems
Режим : 16
Параметр Endianness формата : Big
Идентификатор кодека : A_DTS
Продолжительность : 1 ч. 40 м.
Вид битрейта : Постоянный
Битрейт : 1509 Кбит/сек
Каналы : 6 каналов
Расположение каналов : Front: L C R, Side: L R, LFE
Частота : 48,0 КГц
Битовая глубина : 24 бит
Метод сжатия : С потерями
Размер потока : 1,06 Гбайт (9%)
Заголовок : DTS 5.1 @ 1509 kbps - Dub
Язык : Russian
Default : Нет
Forced : Нет

Аудио #2
Идентификатор : 3
Формат : DTS
Формат/Информация : Digital Theater Systems
Режим : 16
Параметр Endianness формата : Big
Идентификатор кодека : A_DTS
Продолжительность : 1 ч. 40 м.
Вид битрейта : Постоянный
Битрейт : 1509 Кбит/сек
Каналы : 6 каналов
Расположение каналов : Front: L C R, Side: L R, LFE
Частота : 48,0 КГц
Битовая глубина : 24 бит
Метод сжатия : С потерями
Размер потока : 1,06 Гбайт (9%)
Заголовок : DTS 5.1 @ 1509 kbps - AVO, Gavrilov
Язык : Russian
Default : Нет
Forced : Нет

Аудио #3
Идентификатор : 4
Формат : DTS
Формат/Информация : Digital Theater Systems
Режим : 16
Параметр Endianness формата : Big
Идентификатор кодека : A_DTS
Продолжительность : 1 ч. 40 м.
Вид битрейта : Постоянный
Битрейт : 1510 Кбит/сек
Каналы : 6 каналов
Расположение каналов : Front: L C R, Side: L R, LFE
Частота : 48,0 КГц
Битовая глубина : 24 бит
Метод сжатия : С потерями
Размер потока : 1,06 Гбайт (9%)
Заголовок : DTS 5.1 @ 1510 kbps - AVO, Esarev
Язык : Russian
Default : Нет
Forced : Нет

Аудио #4
Идентификатор : 5
Формат : DTS
Формат/Информация : Digital Theater Systems
Режим : 16
Параметр Endianness формата : Big
Идентификатор кодека : A_DTS
Продолжительность : 1 ч. 40 м.
Вид битрейта : Постоянный
Битрейт : 1509 Кбит/сек
Каналы : 6 каналов
Расположение каналов : Front: L C R, Side: L R, LFE
Частота : 48,0 КГц
Битовая глубина : 24 бит
Метод сжатия : С потерями
Размер потока : 1,06 Гбайт (9%)
Заголовок : DTS 5.1 @ 1509 kbps - Original
Язык : English
Default : Нет
Forced : Нет

Текст #1
Идентификатор : 6
Формат : UTF-8
Идентификатор кодека : S_TEXT/UTF8
Идентификатор кодека/Информация : UTF-8 Plain Text
Заголовок : Full
Язык : Russian
Default : Нет
Forced : Нет

Текст #2
Идентификатор : 7
Формат : UTF-8
Идентификатор кодека : S_TEXT/UTF8
Идентификатор кодека/Информация : UTF-8 Plain Text
Заголовок : Full
Язык : English
Default : Нет
Forced : Нет

Текст #3
Идентификатор : 8
Формат : UTF-8
Идентификатор кодека : S_TEXT/UTF8
Идентификатор кодека/Информация : UTF-8 Plain Text
Заголовок : Full SDH
Язык : English
Default : Нет
Forced : Нет

Текст #4
Идентификатор : 9
Формат : UTF-8
Идентификатор кодека : S_TEXT/UTF8
Идентификатор кодека/Информация : UTF-8 Plain Text
Заголовок : Full SDH Colored
Язык : English
Default : Нет
Forced : Нет

Меню
00:00:00.000 : :Chapter 01
00:04:55.461 : :Chapter 02
00:09:14.095 : :Chapter 03
00:14:55.853 : :Chapter 04
00:21:42.426 : :Chapter 05
00:25:03.001 : :Chapter 06
00:31:23.214 : :Chapter 07
00:34:04.000 : :Chapter 08
00:39:01.088 : :Chapter 09
00:45:47.995 : :Chapter 10
00:49:29.257 : :Chapter 11
00:55:16.479 : :Chapter 12
01:01:55.420 : :Chapter 13
01:08:56.173 : :Chapter 14
01:12:27.634 : :Chapter 15
01:16:00.973 : :Chapter 16
01:19:15.250 : :Chapter 17
01:24:02.620 : :Chapter 18
01:29:39.122 : :Chapter 19
01:35:16.961 : :Chapter 20
01:40:34.611 : :Chapter 21

"x264 log"
x264 [info]: frame I:996 Avg QP:17.77 size:222373
x264 [info]: frame P:39360 Avg QP:19.28 size: 91217
x264 [info]: frame B:104337 Avg QP:21.08 size: 42386

x264 [info]: consecutive B-frames: 6.0% 6.6% 15.6% 13.6% 15.2% 38.3% 2.7% 0.6% 0.5% 0.4% 0.5%

x264 [info]: ref P L0: 49.6% 10.4% 21.6% 8.8% 7.6% 2.0% 0.0%
x264 [info]: ref B L0: 75.1% 17.6% 5.7% 1.6%
x264 [info]: ref B L1: 91.8% 8.2%


Ссылки для скачивания:

http//bt.hqclub.net/files/ok.png Торрент: Последний рубеж / Homefront (2013) BDRip 1080p

Лучшая онлайн игра!


Публикация материалов сайта на сторонних ресурсах возможна только в неизменном виде.


Обсудить релиз на форуме

Вас также может заинтересовать:


  • 5
 (Голосов: 4)


Распечатать новость на принтере Боевик, Криминал

КОММЕНТАРИИ

 №1. ru4lan

Статус: Кинокритик | Новостей: 0 | Комментариев: 2736
ru4lan когда Хоббит выйдет от директора?
~~~

3.07.2014 - 00:30   цитировать