Вас Приветствует Релиз-группа HQCLUB


Помощь ресурсу, очень ВАЖНО!!!



.


WELCOME
Добро пожаловать в наше интернет - сообщество!

Всех нас объединяет одна страсть - страсть к высококачественному кино. А это наш сайт. Ежедневно здесь мы публикуем десятки качественных, свежих, а порой и эксклюзивных релизов, которые Вы можете скачать совершенно бесплатно и без каких-либо регистраций. Посему рекомендуем Вам добавить HQClub себе в закладки, а также подписаться на нашу ленту новостей, чтобы всегда быть в курсе всех событий. Ну а если Вы такой же синий фил, как и мы, то милости просим на наш форум. И в заключение, попробуйте зарегистрироваться, ведь не так это и сложно и займет всего лишь пару минут! Вот увидите, Вам у нас понравится и Вы вольетесь в наш дружный коллектив! Ну а пока - осматривайтесь = )
Мы рады Вам !





Защитник / Safe [US-Transfer] (2012) BDRip 720p

Оформил: Sky™ | 26 августа 2012 - 19:46:27 | Комментариев: 3 | Обращений: 1395 {bookmarks_news}

http//lostpic.net/images/65f7dd03f32d89e811aa3961beda04.png

Информация о фильме:
Название: Защитник
Оригинальное название: Safe
Год выхода: 2012
Жанр: боевик, криминал
Режиссер: Боаз Якин
В ролях: Джейсон Стэйтем, Катрин Чан, Роберт Джон Бёрк, Джеймс Хонг, Энсон Маунт, Крис Сарандон, Сандор Текси, Джозеф Сикора, Игорь Жижикин, Регги Ли

О фильме: Бывший агент элитных спецслужб спасает девочку с уникальными способностями из цепких лап Нью-Йоркской мафии. Она - единственная, кто знает код от сейфа, где хранятся миллионы долларов китайских Триад. И теперь только профессионал может защитить ее от мафии, азиатских ассасинов и коррумпированных полицейских. На улицах Нью-Йорка развернется погоня за девочкой, которой очень повезло с Защитником...

«Он - её единственный шанс. Она - его последняя надежда.»



http//imdb.snick.ru/ratefor/03/tt1656190.png http//www.kinopoisk.ru/rating/5230.gif

Релиз от - http//hqclub.net/images/hqclub.png
Автор рипа: Sky™

Выпущено: США (IM GLOBAL)
Продолжительность: 01:34:37
Перевод: Профессиональный (полное дублирование) BD RUS + Оригинальная звуковая дорожка
Субтитры: Английские (*.srt, отключаемые)
-Сохранены оригинальные чаптеры как на Blu-ray.
-Присутствуют английские хардсабы


Файл:
Формат: mkv
Качество: BDRip 720p (источник: http//lostpic.net/images/9c91306e9cffafb1a5062eee37d4276c.png / Blu-Day Disc [US-Transfer] / 1080p)
Видео: 1280x544 (2.35:1), 23.976 fps, X264@L4.1 ~5017 kbps avg,0.301 bit/pixel
Аудио #1: 48 kHz, DTS, 3/2 (L,C,R,l,r) + LFE ch, ~1509 kbps avg (RUS) BD RUS
Аудио #2: 48 kHz, DTS, 3/2 (L,C,R,l,r) + LFE ch, ~1509 kbps avg (ENG)
Размер: 5549.97 Mb
http//lostpic.net/images/1b899dddff9c84e7020a856612f5c646.png

http//lostpic.net/thumbs/e1f5de951303c817e5255f15ed81bdea.png http//lostpic.net/thumbs/fefcd92ed329b30a83fd2030dc2990.png http//lostpic.net/thumbs/e45bd7aabc4605098f7bfbbd7d71ebad.png http//lostpic.net/thumbs/008d8383fc90299b9169c163fe4eafba.png http//lostpic.net/thumbs/f47770a7d38fd1a630ff26320f7b96.png
MediaINFO
Полное имя : Zaschitnik.2012.BDRip.720p.H264.DTS.-HQCLUB.mkv
Формат : Matroska
Версия формата : Version 2
Размер файла : 5,42 Гбайт
Продолжительность : 1 ч. 34 м.
Общий поток : 8200 Кбит/сек
Дата кодирования : UTC 2012-08-26 14:52:00
Программа кодирования : mkvmerge v5.7.0 ('The Whirlwind') built on Jul 8 2012 20:08:51
Библиотека кодирования : libebml v1.2.3 + libmatroska v1.3.0

Видео
Идентификатор : 1
Формат : AVC
Формат/Информация : Advanced Video Codec
Профиль формата : High@L4.1
Параметр CABAC формата : Да
Параметр ReFrames формата : 9 кадров
Идентификатор кодека : V_MPEG4/ISO/AVC
Продолжительность : 1 ч. 34 м.
Битрейт : 5017 Кбит/сек
Ширина : 1280 пикселей
Высота : 544 пикселя
Соотношение сторон : 2,35:1
Частота кадров : 23,976 кадра/сек
Цветовое пространство : YUV
Субдискретизация насыщенности : 4:2:0
Битовая глубина : 8 бит
Тип развёртки : Прогрессивная
Бит/(Пиксели*Кадры) : 0.301
Размер потока : 3,32 Гбайт (61%)
Заголовок : Защитник / Safe [US-Transfer] (2012) BDRip 720p | HQCLUB
Библиотека кодирования : x264 core 120 r2146 bcd41db
Настройки программы : cabac=1 / ref=9 / deblock=1:-3:-3 / analyse=0x3:0x113 / me=umh / subme=9 / psy=1 / psy_rd=1.05:0.10 / mixed_ref=1 / me_range=64 / chroma_me=1 / trellis=2 / 8x8dct=1 / cqm=0 / deadzone=21,11 / fast_pskip=1 / chroma_qp_offset=-3 / threads=6 / sliced_threads=0 / nr=0 / decimate=1 / interlaced=0 / bluray_compat=0 / constrained_intra=0 / bframes=12 / b_pyramid=2 / b_adapt=2 / b_bias=0 / direct=1 / weightb=1 / open_gop=0 / weightp=2 / keyint=230 / keyint_min=23 / scenecut=40 / intra_refresh=0 / rc=cqp / mbtree=0 / qp=18 / ip_ratio=1.40 / pb_ratio=1.30 / aq=0
Язык : English
Default : Да
Forced : Да

Аудио #1
Идентификатор : 2
Формат : DTS
Формат/Информация : Digital Theater Systems
Идентификатор кодека : A_DTS
Продолжительность : 1 ч. 34 м.
Вид битрейта : Постоянный
Битрейт : 1510 Кбит/сек
Каналы : 6 каналов
Расположение каналов : Front: L C R, Side: L R, LFE
Частота : 48,0 КГц
Битовая глубина : 24 бит
Метод сжатия : С потерями
Размер потока : 1022 Мбайт (18%)
Заголовок : Дубляж (BD RUS) DTS 5.1 @ 1509 kbps
Язык : Russian
Default : Да
Forced : Да

Аудио #2
Идентификатор : 3
Формат : DTS
Формат/Информация : Digital Theater Systems
Идентификатор кодека : A_DTS
Продолжительность : 1 ч. 34 м.
Вид битрейта : Постоянный
Битрейт : 1510 Кбит/сек
Каналы : 6 каналов
Расположение каналов : Front: L C R, Side: L R, LFE
Частота : 48,0 КГц
Битовая глубина : 24 бит
Метод сжатия : С потерями
Размер потока : 1022 Мбайт (18%)
Заголовок : Оригинал DTS 5.1 @ 1509 kbps
Язык : English
Default : Нет
Forced : Да

Текст
Идентификатор : 4
Формат : UTF-8
Идентификатор кодека : S_TEXT/UTF8
Идентификатор кодека/Информация : UTF-8 Plain Text
Заголовок : Full
Язык : English
Default : Да
Forced : Да

Меню
00:00:00.000 : en:00:00:00.000
00:04:42.282 : en:00:04:42.282
00:06:50.327 : en:00:06:50.327
00:09:57.889 : en:00:09:57.889
00:14:03.718 : en:00:14:03.718
00:17:52.613 : en:00:17:52.613
00:20:48.289 : en:00:20:48.289
00:24:09.990 : en:00:24:09.990
00:29:30.977 : en:00:29:30.977
00:35:33.548 : en:00:35:33.548
00:40:11.868 : en:00:40:11.868
00:44:33.838 : en:00:44:33.838
00:47:28.679 : en:00:47:28.679
00:53:31.458 : en:00:53:31.458
00:56:21.336 : en:00:56:21.336
01:00:05.143 : en:01:00:05.143
01:02:59.401 : en:01:02:59.401
01:08:03.621 : en:01:08:03.621
01:11:55.311 : en:01:11:55.311
01:15:32.820 : en:01:15:32.820
01:17:50.541 : en:01:17:50.541
01:20:56.101 : en:01:20:56.101
01:24:25.185 : en:01:24:25.185
01:27:11.268 : en:01:27:11.268

x264 log
---[NoImage] x264 [info]: frame I:886 Avg QP:15.00 size:121969
---[NoImage] x264 [info]: frame P:31306 Avg QP:18.00 size: 45913
---[NoImage] x264 [info]: frame B:103941 Avg QP:19.76 size: 20488
---[NoImage] x264 [info]: consecutive B-frames: 3.6% 4.0% 9.9% 14.1% 13.3% 42.9% 4.6% 0.8% 0.9% 4.1% 1.3% 0.3% 0.3%
---[NoImage] x264 [info]: mb I I16..4: 26.7% 55.3% 18.0%
---[NoImage] x264 [info]: mb P I16..4: 2.7% 19.9% 1.6% P16..4: 31.6% 18.7% 11.3% 0.0% 0.0% skip:14.2%
---[NoImage] x264 [info]: mb B I16..4: 0.1% 2.4% 0.2% B16..8: 41.7% 9.6% 3.2% direct: 8.4% skip:34.6% L0:43.7% L1:46.4% BI: 9.9%
---[NoImage] x264 [info]: 8x8 transform intra:82.2% inter:63.8%
---[NoImage] x264 [info]: coded y,uvDC,uvAC intra: 90.0% 89.4% 81.5% inter: 33.9% 38.7% 12.4%
---[NoImage] x264 [info]: i16 v,h,dc,p: 35% 12% 15% 38%
---[NoImage] x264 [info]: i8 v,h,dc,ddl,ddr,vr,hd,vl,hu: 10% 11% 9% 9% 13% 12% 12% 11% 12%
---[NoImage] x264 [info]: i4 v,h,dc,ddl,ddr,vr,hd,vl,hu: 9% 10% 5% 10% 15% 13% 14% 11% 13%
---[NoImage] x264 [info]: i8c dc,h,v,p: 52% 16% 13% 20%
---[NoImage] x264 [info]: Weighted P-Frames: Y:18.8% UV:12.2%
---[NoImage] x264 [info]: ref P L0: 43.2% 8.8% 20.8% 7.4% 6.2% 4.2% 4.0% 2.2% 2.3% 0.7% 0.2%
---[NoImage] x264 [info]: ref B L0: 74.2% 12.8% 5.5% 2.8% 1.9% 1.7% 0.9% 0.3%
---[NoImage] x264 [info]: ref B L1: 92.2% 7.8%
---[NoImage] x264 [info]: kb/s:5177.98

Ссылки для скачивания:

http//bt.hqclub.net/files/ok.png Торрент: Защитник / Safe [US-Transfer] (2012) BDRip 720p

Лучшая онлайн игра!


Публикация материалов сайта на сторонних ресурсах возможна только в неизменном виде.


Обсудить релиз на форуме

Вас также может заинтересовать:


  • 4
 (Голосов: 7)


Распечатать новость на принтере Боевик, Криминал
Обновлено: 28.08.2012 - 12:28

КОММЕНТАРИИ

 №1. The strong

Статус: Новичок | Новостей: 0 | Комментариев: 10
The strong Cold Creek Manor (2003) Blu-ray Disc -HDRoad репните плизз, заждался, в сети ни одного хд рипа, а блюр в сети около недели
~~~

26.08.2012 - 20:48   цитировать  

 №2. Sky™

Статус: Новичок | Новостей: 153 | Комментариев: 43
Sky™ Наверное, этотДьявольский особняк / Cold Creek Manor (2003) Blu-ray EUR 1080p AVC DD5.1-TTG ? Тогда Вам сюда
~~~

26.08.2012 - 21:26   цитировать  

 №3. ru4lan

Статус: Кинокритик | Новостей: 0 | Комментариев: 2736
ru4lan беру!
~~~

11.11.2012 - 22:50   цитировать