Вас Приветствует Релиз-группа HQCLUB


Помощь ресурсу, очень ВАЖНО!!!



.


WELCOME
Добро пожаловать в наше интернет - сообщество!

Всех нас объединяет одна страсть - страсть к высококачественному кино. А это наш сайт. Ежедневно здесь мы публикуем десятки качественных, свежих, а порой и эксклюзивных релизов, которые Вы можете скачать совершенно бесплатно и без каких-либо регистраций. Посему рекомендуем Вам добавить HQClub себе в закладки, а также подписаться на нашу ленту новостей, чтобы всегда быть в курсе всех событий. Ну а если Вы такой же синий фил, как и мы, то милости просим на наш форум. И в заключение, попробуйте зарегистрироваться, ведь не так это и сложно и займет всего лишь пару минут! Вот увидите, Вам у нас понравится и Вы вольетесь в наш дружный коллектив! Ну а пока - осматривайтесь = )
Мы рады Вам !





Апокалипсис (Новое начало) / Apocalypto (2006) BDRip-AVC

Оформил: Sky™ | 15 января 2012 - 02:22:14 | Комментариев: 3 | Обращений: 3059 {bookmarks_news}

http//lostpic.net/images/8aaa81e2a9fd1f2127a33985bf7b5473.png

Название: Апокалипсис
Оригинальное название: Apocalypto
Год выхода: 2006
Жанр: боевик, драма, приключения
Режиссер: Мэл Гибсон / Mel Gibson
В ролях: Руди Янблад, Далия Эрнандез, Джонатан Брюэр, Моррис Бердйеллоухэд, Карлос Эмилио Баез, Рамирез Амилкар, Израэл Контрерас, Израэль Риос, Мария Изабель Диаз, Эспиридион Акоста Кэш и другие...

О фильме: В фильме показана жизнь цивилизации майя до прихода испанских конкистадоров: жестокие войны с соседними племенами, человеческие жертвоприношения, загадочные мистические ритуалы.
В один день рушится мир индейца по имени Лапа Ягуара. Его деревню захватывает соседнее племя, уничтожая хижины, забирая местных жителей в плен. Его ведут в город, чтобы принести в жертву богам. Перед лицом неминуемой смерти Лапа Ягуара должен побороть свои самые сильные страхи и совершить отчаянный рывок, чтобы спасти то, что ему дорого…

http//www.kinopoisk.ru/rating/160977.gif
Топ250: 183

Релиз от - http//hqclub.net/images/hqclub.png
Автор рипа: Sky™

Выпущено: США (Icon Entertainment)
Продолжительность: 2:18:20
Перевод: Авторский (двухголосый, закадровый) П.Гланц и И.Королёва + Оригинал + Авторский (одноголосый, закадровый) Ю.Живов отдельно на narod.ru + Авторский (одноголосый, закадровый) С. Рябов отдельно на narod.ru + Авторский (одноголосый, закадровый) Д. Строев отдельно на narod.ru
Субтитры: Русские, Английские, Украинские

Формат: MKV
Качество: BDRip (источник: http//hdclub.org/dox/sitebutton_tracker.hdclub.com.ua1.gif / BD-Remux / 1080p)
Видео: 1024x554 (2,40:1), 23,976 fps, x264@L4.1, 2pass ~2800 kbps avg, 0.206 bit/pixel
Аудио #1: 48 kHz, AC3 Dolby Digital 5.1 @ 448 kbps (6 channels) [Russian] DVO П.Гланц и И.Королёва
Аудио #2: 48 kHz, AC3 Dolby Digital 5.1 @ 448 kbps (6 channels) [Mayan]
Аудио #3: 48 kHz, AC3 Dolby Digital 5.1 @ 448 kbps (6 channels) [Russian] AVO Ю.Живов отдельно на narod.ru
Аудио #4: 48 kHz, AC3 Dolby Digital 5.1 @ 448 kbps (6 channels) [Russian] AVO С. Рябов отдельно на narod.ru
Аудио #5: 48 kHz, AC3 Dolby Digital 5.1 @ 448 kbps (6 channels) [Russian] AVO Д. Строев отдельно на narod.ru
Размер: 3658.17
http//lostpic.net/images/1b899dddff9c84e7020a856612f5c646.png

http//lostpic.net/thumbs/0e55ae302fb82912f2790dca2acec3.png http//lostpic.net/thumbs/0d36889fb08de38850b8cb77371cce.png http//lostpic.net/thumbs/01ff41f7f25ee1e953dab31333c31fa5.png http//lostpic.net/thumbs/c517af5ff93c0268b8a4c142defa6b3b.png http//lostpic.net/thumbs/7fec7833ed42b8c819d72100f5d652ec.png http//lostpic.net/thumbs/076c89775aad1bda323fbb5e7bccbe38.png http//lostpic.net/thumbs/5a02f185af8146fdcb2e62a45d7a230b.png http//lostpic.net/thumbs/687f400a4c04d831dbb31b6ea0755f.png
MediaInfo

Полное имя : Apokalipsis.2006.BDRip-AVC\Apokalipsis.2006.BDRip-AVC.H264.AC3.-HQCLUB.mkv
Формат : Matroska
Версия формата : Version 2
Размер файла : 3,57 Гбайт
Продолжительность : 2 ч. 18 м.
Общий поток : 3697 Кбит/сек
Дата кодирования : UTC 2012-01-14 21:34:41
Программа кодирования : mkvmerge v5.2.1 ('A Far Off Place') built on Jan 2 2012 23:21:10
Библиотека кодирования : libebml v1.2.3 + libmatroska v1.3.0

Видео
Идентификатор : 1
Формат : AVC
Формат/Информация : Advanced Video Codec
Профиль формата : High@L4.1
Параметр CABAC формата : Да
Параметр ReFrames формата : 9 кадров
Идентификатор кодека : V_MPEG4/ISO/AVC
Продолжительность : 2 ч. 18 м.
Битрейт : 2800 Кбит/сек
Ширина : 1024 пикселя
Высота : 554 пикселя
Соотношение сторон : 16:9
Частота кадров : 23,976 кадра/сек
Цветовое пространство : YUV
Субдискретизация насыщенности : 4:2:0
Битовая глубина : 8 бит
Тип развёртки : Прогрессивная
Бит/(Пиксели*Кадры) : 0.206
Размер потока : 2,64 Гбайт (74%)
Заголовок : Апокалипсис (Новое начало) / Apocalypto (2006) BDRip-AVC by Sky™ | HQCLUB
Библиотека кодирования : x264 core 116 r2074 2641b9e
Настройки программы : cabac=1 / ref=9 / deblock=1:-3:-3 / analyse=0x3:0x113 / me=umh / subme=10 / psy=1 / psy_rd=0.90:0.05 / mixed_ref=1 / me_range=32 / chroma_me=1 / trellis=2 / 8x8dct=1 / cqm=0 / deadzone=21,11 / fast_pskip=1 / chroma_qp_offset=-3 / threads=3 / sliced_threads=0 / nr=0 / decimate=1 / interlaced=0 / bluray_compat=0 / constrained_intra=0 / bframes=9 / b_pyramid=2 / b_adapt=2 / b_bias=0 / direct=1 / weightb=1 / open_gop=0 / weightp=2 / keyint=250 / keyint_min=23 / scenecut=40 / intra_refresh=0 / rc=2pass / mbtree=0 / bitrate=2800 / ratetol=1.0 / qcomp=0.60 / qpmin=10 / qpmax=51 / qpstep=4 / cplxblur=20.0 / qblur=0.5 / ip_ratio=1.40 / pb_ratio=1.30 / aq=1:0.90
Язык : English

Аудио #1
Идентификатор : 2
Формат : AC-3
Формат/Информация : Audio Coding 3
Расширение режима : CM (complete main)
Идентификатор кодека : A_AC3
Продолжительность : 2 ч. 18 м.
Вид битрейта : Постоянный
Битрейт : 448 Кбит/сек
Каналы : 6 каналов
Расположение каналов : Front: L C R, Side: L R, LFE
Частота : 48,0 КГц
Битовая глубина : 16 бит
Метод сжатия : С потерями
Размер потока : 443 Мбайт (12%)
Заголовок : Двуголосый (П. Гланц и И. Королева) AC3 5.1 @ 448 kbps
Язык : Russian

Аудио #2
Идентификатор : 3
Формат : AC-3
Формат/Информация : Audio Coding 3
Расширение режима : CM (complete main)
Идентификатор кодека : A_AC3
Продолжительность : 2 ч. 18 м.
Вид битрейта : Постоянный
Битрейт : 448 Кбит/сек
Каналы : 6 каналов
Расположение каналов : Front: L C R, Side: L R, LFE
Частота : 48,0 КГц
Битовая глубина : 16 бит
Метод сжатия : С потерями
Размер потока : 443 Мбайт (12%)
Заголовок : Оригинал (майя) AC3 5.1 @ 448 kbps

Текст #1
Идентификатор : 4
Формат : UTF-8
Идентификатор кодека : S_TEXT/UTF8
Идентификатор кодека/Информация : UTF-8 Plain Text
Заголовок : Full, R5
Язык : Russian

Текст #2
Идентификатор : 5
Формат : UTF-8
Идентификатор кодека : S_TEXT/UTF8
Идентификатор кодека/Информация : UTF-8 Plain Text
Заголовок : Full, D.Stroev
Язык : Russian

Текст #3
Идентификатор : 6
Формат : UTF-8
Идентификатор кодека : S_TEXT/UTF8
Идентификатор кодека/Информация : UTF-8 Plain Text
Заголовок : Full, R5
Язык : Ukrainian

Текст #4
Идентификатор : 7
Формат : UTF-8
Идентификатор кодека : S_TEXT/UTF8
Идентификатор кодека/Информация : UTF-8 Plain Text
Заголовок : Full
Язык : English

Меню
00:00:00.000 : en:Chapter 1
00:08:19.330 : en:Chapter 2
00:13:03.740 : en:Chapter 3
00:19:17.279 : en:Chapter 4
00:23:09.720 : en:Chapter 5
00:32:34.242 : en:Chapter 6
00:37:45.178 : en:Chapter 7
00:48:28.654 : en:Chapter 8
00:56:39.102 : en:Chapter 9
01:00:53.773 : en:Chapter 10
01:09:15.108 : en:Chapter 11
01:18:12.937 : en:Chapter 12
01:23:15.781 : en:Chapter 13
01:32:12.275 : en:Chapter 14
01:43:07.721 : en:Chapter 15
01:50:14.982 : en:Chapter 16
01:57:45.682 : en:Chapter 17
02:08:06.469 : en:Chapter 18
02:09:49.030 : en:Chapter 19
02:18:20.707 : en:Chapter 20

log
---[NoImage] x264 [info]: frame I:1889 Avg QP:20.26 size: 78182
---[NoImage] x264 [info]: frame P:52877 Avg QP:21.33 size: 25975
---[NoImage] x264 [info]: frame B:144266 Avg QP:23.39 size: 9351
---[NoImage] x264 [info]: consecutive B-frames: 4.5% 5.5% 9.7% 41.4% 13.6% 17.0% 5.1% 2.2% 0.7% 0.4%
---[NoImage] x264 [info]: mb I I16..4: 20.4% 0.0% 79.6%
---[NoImage] x264 [info]: mb P I16..4: 30.3% 0.0% 0.0% P16..4: 58.6% 0.0% 0.0% 0.0% 0.0% skip:11.0%
---[NoImage] x264 [info]: mb B I16..4: 6.0% 0.0% 0.0% B16..8: 31.5% 0.0% 0.0% direct:19.2% skip:43.2% L0:28.1% L1:38.1% BI:33.8%
---[NoImage] x264 [info]: final ratefactor: 19.74
---[NoImage] x264 [info]: coded y,uvDC,uvAC intra: 64.5% 66.6% 32.9% inter: 26.5% 19.4% 1.8%
---[NoImage] x264 [info]: i16 v,h,dc,p: 29% 22% 29% 20%
---[NoImage] x264 [info]: i4 v,h,dc,ddl,ddr,vr,hd,vl,hu: 18% 17% 17% 4% 12% 7% 8% 7% 10%
---[NoImage] x264 [info]: i8c dc,h,v,p: 53% 18% 20% 8%
---[NoImage] x264 [info]: Weighted P-Frames: Y:16.4% UV:10.1%

http//s52.radikal.ru/i136/0912/4f/9271076c3e7b.png Торрент: Апокалипсис (Новое начало) / Apocalypto (2006) BDRip-AVC

Лучшая онлайн игра!


Публикация материалов сайта на сторонних ресурсах возможна только в неизменном виде.


Обсудить релиз на форуме

Вас также может заинтересовать:


  • 5
 (Голосов: 19)


Распечатать новость на принтере Боевик, Драма, Приключения
Обновлено: 15.01.2012 - 15:11

КОММЕНТАРИИ

 №1. Marshall Mathers

Статус: Кинокритик | Новостей: 0 | Комментариев: 468
Marshall Mathers Мэл Гибсон постаралсяay Превосходное киноgood2
~~~

15.01.2012 - 14:27   цитировать  

 №2. SerB_777

Статус: Кинокритик | Новостей: 0 | Комментариев: 583
SerB_777 Sky™, БОЛЬШОЕ СПАСИБО за труд!!! Ну ты постарался...
Конечно, фильм того стоит!
~~~

16.01.2012 - 12:09   цитировать  

 №3. Denknot

Статус: Зритель | Новостей: 0 | Комментариев: 195
Мэл Гибсон
~~~

28.01.2013 - 02:08   цитировать