Вас Приветствует Релиз-группа HQCLUB


Помощь ресурсу, очень ВАЖНО!!!



.


WELCOME
Добро пожаловать в наше интернет - сообщество!

Всех нас объединяет одна страсть - страсть к высококачественному кино. А это наш сайт. Ежедневно здесь мы публикуем десятки качественных, свежих, а порой и эксклюзивных релизов, которые Вы можете скачать совершенно бесплатно и без каких-либо регистраций. Посему рекомендуем Вам добавить HQClub себе в закладки, а также подписаться на нашу ленту новостей, чтобы всегда быть в курсе всех событий. Ну а если Вы такой же синий фил, как и мы, то милости просим на наш форум. И в заключение, попробуйте зарегистрироваться, ведь не так это и сложно и займет всего лишь пару минут! Вот увидите, Вам у нас понравится и Вы вольетесь в наш дружный коллектив! Ну а пока - осматривайтесь = )
Мы рады Вам !





Бой с тенью 3D: Последний раунд (2011) BDRip-AVC

Оформил: Sky™ | 7 февраля 2012 - 18:33:23 | Обращений: 1771 {bookmarks_news}

http//lostpic.net/images/15eddb6977dbecf831750eb1d02394.png

Информация о фильме:
Название: Бой с тенью 3D: Последний раунд
Год выхода: 2011
Жанр: боевик, драма, криминал, приключения
Режиссер: Алексей Сидоров
В ролях: Денис Никифоров, Андрей Панин, Елена Панова, Бату Хасиков, Михаил Горевой, Дмитрий Шевченко, Ольга Дибцева, Софья Мицкевич, Сергей Рябых, Шакрит Ямнарм

О фильме: Боксер-чемпион Артем Колчин достиг всех мыслимых вершин и стал национальным героем. На ринг он больше не выходит, предпочитая тренерскую работу и бурную светскую жизнь с постоянным мельканием на ТВ, тусовками и интрижками. А дома его по утрам встречают дочка и жена Вика, которая больше не узнает в нем того Артема, которого она когда-то полюбила…

Внешне благополучному существованию Колчина приходит конец, когда его подопечного чуть не убивает в бою знаменитый Куэрте. Артем подозревает, что тот использует некую запрещенную технику. За доказательствами ему приходится отправиться в Гонконг, где его ждет старый знакомый Вагит Валиев: он знает о Куэрте то, чего не знает больше ни один человек. Чтобы победить, Артему придется снова выйти на ринг.

«Последний раунд решает всё»



http//www.kinopoisk.ru/rating/541055.gif http//bluebird-hd.org/imdb/imdb_tt2097245.gif

Релиз от - http//hqclub.net/images/hqclub.png
Автор рипа: Sky™

Выпущено: Россия («Централ Партнершип»)
Продолжительность: 02:06:36
Субтитры: нет

Файл:
Формат: MKV
Качество: BDRip (источник: schumaher / Blu-Ray Remux / 1080р)
Видео: 1036x434 (2,35:1), 23,976 fps, x264@L4.1, 2pass ~2500 kbps avg, 0.232 bit/pixel
Аудио: 48 kHz, AC3 Dolby Digital, 3/2 (L,C,R,l,r) + LFE ch, ~448 kbps avg
Размер: 2668.14 Mb
http//lostpic.net/images/1b899dddff9c84e7020a856612f5c646.png

http//lostpic.net/thumbs/5b6d9e5c9b4f6bfb69a3be445dd238c3.png http//lostpic.net/thumbs/a4b6833bea7e3c4b17e3209f334537.png http//lostpic.net/thumbs/01d69d0f545e97fbfde18270cab880.png http//lostpic.net/thumbs/b1f13ec518ce0a635976853e7697.png http//lostpic.net/thumbs/17993089a93c38428867652c6a36.png
MediaInfo

Полное имя : Boj.s.tenyu.3D.Poslednij.raund.2011.BDRip-AVC.H264.AC3.-HQCLUB.mkv
Формат : Matroska
Размер файла : 2,61 Гбайт
Продолжительность : 2 ч. 6 м.
Общий поток : 2946 Кбит/сек
Дата кодирования : UTC 2012-02-06 13:59:55
Программа кодирования : mkvmerge v5.2.1 ('A Far Off Place') built on Jan 2 2012 23:21:10
Библиотека кодирования : libebml v1.2.3 + libmatroska v1.3.0

Видео
Идентификатор : 1
Формат : AVC
Формат/Информация : Advanced Video Codec
Профиль формата : High@L4.1
Параметр CABAC формата : Да
Параметр ReFrames формата : 9 кадры
Режим смешивания : Container profile=Unknown@4.1
Идентификатор кодека : V_MPEG4/ISO/AVC
Продолжительность : 2 ч. 6 м.
Битрейт : 2500 Кбит/сек
Ширина : 1036 пикс.
Высота : 434 пикс.
Соотношение сторон : 2,35:1
Частота кадров : 23,976 кадр/сек
Цветовое пространство : YUV
Подвыборка цветности : 4:2:0
Битовая глубина : 8 бит
Тип развёртки : Прогрессивная
Бит/(Пиксели*Кадры) : 0.232
Размер потока : 2,16 Гбайт (83%)
Заголовок : Бой с тенью 3D: Последний раунд (2011) BDRip-AVC by Sky™ | HQCLUB
Библиотека кодирования : x264 core 120 r2146 bcd41db
Настройки программы : cabac=1 / ref=9 / deblock=1:-3:-3 / analyse=0x3:0x113 / me=umh / subme=10 / psy=1 / psy_rd=1.05:0.15 / mixed_ref=1 / me_range=32 / chroma_me=1 / trellis=2 / 8x8dct=1 / cqm=0 / deadzone=21,11 / fast_pskip=1 / chroma_qp_offset=-5 / threads=3 / sliced_threads=0 / nr=0 / decimate=0 / interlaced=0 / bluray_compat=0 / constrained_intra=0 / bframes=9 / b_pyramid=2 / b_adapt=2 / b_bias=0 / direct=1 / weightb=1 / open_gop=0 / weightp=2 / keyint=240 / keyint_min=23 / scenecut=40 / intra_refresh=0 / rc_lookahead=40 / rc=2pass / mbtree=0 / bitrate=2500 / ratetol=1.0 / qcomp=0.60 / qpmin=10 / qpmax=51 / qpstep=4 / cplxblur=20.0 / qblur=0.5 / vbv_maxrate=62500 / vbv_bufsize=50000 / nal_hrd=none / ip_ratio=1.40 / pb_ratio=1.30 / aq=1:0.90

Аудио
Идентификатор : 2
Формат : AC-3
Формат/Информация : Audio Coding 3
Расширение режима : CM (complete main)
Идентификатор кодека : A_AC3
Продолжительность : 2 ч. 6 м.
Вид битрейта : Постоянный
Битрейт : 448 Кбит/сек
Канал(ы) : 6 канала(ов)
Расположение каналов : Front: L C R, Side: L R, LFE
Частота : 48,0 КГц
Битовая глубина : 16 бит
Размер потока : 406 Мбайт (15%)
Заголовок : Оригинал AC3 5.1 @ 448 kbps
Язык : Russian

Меню
00:00:00.000 : en:
00:08:26.172 : en:
00:15:19.292 : en:
00:21:52.394 : en:
00:29:31.853 : en:
00:38:35.146 : en:
00:46:58.357 : en:
00:55:38.793 : en:
01:05:58.371 : en:
01:14:37.555 : en:
01:21:14.119 : en:
01:31:43.456 : en:
01:39:16.700 : en:
01:46:14.451 : en:
01:53:16.997 : en:
02:01:41.127 : en: *
log

---[NoImage] x264 [info]: frame I:1650 Avg QP:19.07 size: 57785
---[NoImage] x264 [info]: frame P:47327 Avg QP:21.38 size: 22462
---[NoImage] x264 [info]: frame B:133159 Avg QP:22.81 size: 9104
---[NoImage] x264 [info]: consecutive B-frames: 5.0% 5.9% 11.7% 23.0% 14.5% 33.7% 3.7% 0.7% 1.1% 0.7%
---[NoImage] x264 [info]: mb I I16..4: 10.1% 72.2% 17.8%
---[NoImage] x264 [info]: mb P I16..4: 3.8% 18.9% 2.6% P16..4: 36.2% 19.1% 10.2% 0.0% 0.0% skip: 9.2%
---[NoImage] x264 [info]: mb B I16..4: 0.5% 2.1% 0.4% B16..8: 41.4% 11.8% 3.3% direct: 8.1% skip:32.4% L0:42.5% L1:44.9% BI:12.5%
---[NoImage] x264 [info]: 8x8 transform intra:73.1% inter:72.2%
---[NoImage] x264 [info]: coded y,uvDC,uvAC intra: 73.5% 90.3% 74.7% inter: 25.6% 38.8% 21.6%
---[NoImage] x264 [info]: i16 v,h,dc,p: 38% 18% 10% 34%
---[NoImage] x264 [info]: i8 v,h,dc,ddl,ddr,vr,hd,vl,hu: 15% 9% 7% 9% 12% 12% 13% 10% 12%
---[NoImage] x264 [info]: i4 v,h,dc,ddl,ddr,vr,hd,vl,hu: 22% 9% 4% 8% 13% 12% 13% 9% 11%
---[NoImage] x264 [info]: i8c dc,h,v,p: 43% 21% 19% 17%
---[NoImage] x264 [info]: Weighted P-Frames: Y:3.4% UV:1.6%
---[NoImage] x264 [info]: ref P L0: 49.7% 12.1% 17.2% 5.8% 4.8% 3.3% 3.0% 1.8% 1.9% 0.4% 0.0%
---[NoImage] x264 [info]: ref B L0: 77.0% 11.2% 4.8% 2.6% 1.8% 1.5% 0.9% 0.3%
---[NoImage] x264 [info]: ref B L1: 94.3% 5.7%
---[NoImage] x264 [info]: kb/s:2496.59
---[NoImage] encoded 182136 frames, 3.55 fps, 2496.60 kb/s
Ссылки для скачивания:

http//bt.hqclub.net/files/ok.png Торрент: Бой с тенью 3D: Последний раунд (2011) BDRip-AVC

Лучшая онлайн игра!


Публикация материалов сайта на сторонних ресурсах возможна только в неизменном виде.


Обсудить релиз на форуме

Вас также может заинтересовать:


  • 2
 (Голосов: 9)


Распечатать новость на принтере Боевик, Драма, Криминал, Приключения, Отечественный
Обновлено: 10.02.2012 - 01:41