Вас Приветствует Релиз-группа HQCLUB


Помощь ресурсу, очень ВАЖНО!!!



.


WELCOME
Добро пожаловать в наше интернет - сообщество!

Всех нас объединяет одна страсть - страсть к высококачественному кино. А это наш сайт. Ежедневно здесь мы публикуем десятки качественных, свежих, а порой и эксклюзивных релизов, которые Вы можете скачать совершенно бесплатно и без каких-либо регистраций. Посему рекомендуем Вам добавить HQClub себе в закладки, а также подписаться на нашу ленту новостей, чтобы всегда быть в курсе всех событий. Ну а если Вы такой же синий фил, как и мы, то милости просим на наш форум. И в заключение, попробуйте зарегистрироваться, ведь не так это и сложно и займет всего лишь пару минут! Вот увидите, Вам у нас понравится и Вы вольетесь в наш дружный коллектив! Ну а пока - осматривайтесь = )
Мы рады Вам !





Горечь и сладость / Горько-сладкая жизнь / A Bittersweet Life / Dalkomhan insaeng (2005) BDRip-AVC

Оформил: Elheym | 26 ноября 2015 - 14:58:58 | Обращений: 540 {bookmarks_news}

http//img10.lostpic.net/2015/11/26/88e92e83e217fa56943609aa937c7e6e.jpg

Информация о фильме:
Название: Горечь и сладость
Оригинальное название: Dalkomhan insaeng
Год выхода: 2005
Жанр: боевик, драма, криминал
Режиссер: Ким Чжи Ун / Kim Ji Woon
В ролях: Ли Бён Хон, Чжон-мин Хван, Ю-Ми Жонг, Ку Джин, Рой-ха Ким, Ён-чхоль Ким, Ги-ён Ли, Му-ён Ли, Эрик Мун

О фильме: Сон У — хладнокровный перфекционист, управляющий дорогим рестораном. Он настолько мастерски справляется с работой, что заслужил безграничное доверие босса своей банды, мистера Кана.

У мистера Кана есть проблема — похоже, его юная подружка Хи Су встречается с кем-то на стороне, довериться в этом деликатном деле Кан может лишь Сон У, приказывая ему убить девчонку, если подозрения окажутся правдой. Через несколько дней слежки Сон У застает ее с любовником, но к своему собственному удивлению нарушает приказ и отпускает голубков; эта роковая слабость ввергает банду в необратимую войну.

«When doing right goes very, very wrong»



http//rating.kinopoisk.ru/103416.gif http//tracker.0day.kiev.ua/imdb/imdb_tt0456912.gif

Релиз от - http//i62.fastpic.ru/big/2014/0702/3e/4ca0c27a93261c4d900a30afd0a03f3e.png
Автор рипа: Elheym

Выпущено: Корея Южная ‖ B.O.M. Film Productions Co. Ltd., Centurion Technology Investment, CJ Entertainment, CJ Venture Investment, Ilshin Capital Investments
Продолжительность: 01:59:21
Перевод: Авторский (одноголосый, закадровый) Ю. Сербин
Оригинальная аудиодорожка: корейская
Субтитры: русские (полные), английские (полные)
Главы: присутствуют, сохранены оригинальные

Дополнительные аудиодорожки:
+ Любительский (одноголосый, закадровый) @PD

Файл:
Формат: MKV
Качество: BDRip-AVC (источник: andrewCFC239 / Blu-ray Disc [A Bittersweet Life. Blu-ray] / 1080p)
Видео: 1148x464 (2.47:1), 23.976 fps, MPEG-4 AVC, ~4500 kbps avg, 0.352 bit/pixel
Аудио #1: 48 kHz, AC3 Dolby Digital, 3/2 (L,C,R,l,r) + LFE ch, ~448 kbps avg (AVO.SERBIN)
Аудио #2: 48 kHz, AC3 Dolby Digital, 3/2 (L,C,R,l,r) + LFE ch, ~448 kbps avg (KOR)
Аудио #3: 48 kHz, AC3 Dolby Digital, 3/2 (L,C,R,l,r) + LFE ch, ~448 kbps avg (VO.@PD) (отдельно)
Сэмпл: скачать

http//img10.lostpic.net/2015/11/26/798a39d01bcbf5af4deb77d7ed867d.th.png http//img10.lostpic.net/2015/11/26/1ea0a3409841ba9b392c15e6960f54.th.png http//img10.lostpic.net/2015/11/26/ab92b090be7962aa70f460d471ef83.th.png http//img10.lostpic.net/2015/11/26/99a913d83960f6293f2ec0500a9116.th.png http//img10.lostpic.net/2015/11/26/25d5b5a621fe4bf67985d739b0ef12.th.png http//img10.lostpic.net/2015/11/26/76ba33d3c8f301d731f0bd1e5f4ee1fd.th.png

"MediaInfo"

Уникальный идентификатор : 189136516482660869641797059800798840914 (0x8E4A5E39A5513BC5814A31C62DDFC852)
Полное имя : Dalkomhan.insaeng.2005.DUAL.BDRip-AVC.x264.AC3.-HQCLUB.mkv
Формат : Matroska
Версия формата : Version 2
Размер файла : 4,50 Гбайт
Продолжительность : 1 ч. 59 м.
Общий поток : 5398 Кбит/сек
Название фильма : Горечь и сладость / Горько-сладкая жизнь / A Bittersweet Life / Dalkomhan insaeng (2005) BDRip-AVC
Дата кодирования : UTC 2015-11-26 11:14:54
Программа кодирования : mkvmerge v5.2.0 ('I can't explain') built on Dec 18 2011 18:12:03
Библиотека кодирования : libebml v1.2.3 + libmatroska v1.3.0
Attachements : cover.jpg

Видео
Идентификатор : 1
Формат : AVC
Формат/Информация : Advanced Video Codec
Профиль формата : High@L4
Параметр CABAC формата : Да
Параметр ReFrames формата : 13 кадров
Идентификатор кодека : V_MPEG4/ISO/AVC
Продолжительность : 1 ч. 59 м.
Битрейт : 4500 Кбит/сек
Ширина : 1148 пикселей
Высота : 464 пикселя
Соотношение сторон : 2,474
Режим частоты кадров : Постоянный
Частота кадров : 23,976 кадра/сек
Цветовое пространство : YUV
Субдискретизация насыщенности : 4:2:0
Битовая глубина : 8 бит
Тип развёртки : Прогрессивная
Бит/(Пиксели*Кадры) : 0.352
Размер потока : 3,66 Гбайт (81%)
Заголовок : Горечь и сладость / Горько-сладкая жизнь / A Bittersweet Life / Dalkomhan insaeng (2005) BDRip-AVC by Elheym [HQCLUB]
Библиотека кодирования : x264 core 148 r2638+53 bb29004 t_mod_Custom [8-bit@all X86_64]
Настройки программы : cabac=1 / ref=14 / deblock=1:-3:-2 / analyse=0x3:0x113 / me=umh / subme=11 / psy=1 / fade_compensate=0.00 / psy_rd=1.15:0.00 / mixed_ref=1 / me_range=48 / chroma_me=1 / trellis=2 / 8x8dct=1 / cqm=0 / deadzone=21,11 / fast_pskip=0 / chroma_qp_offset=-2 / threads=6 / lookahead_threads=2 / sliced_threads=0 / nr=0 / decimate=0 / interlaced=0 / bluray_compat=0 / constrained_intra=0 / fgo=0 / bframes=11 / b_pyramid=1 / b_adapt=2 / b_bias=0 / direct=3 / weightb=1 / open_gop=0 / weightp=2 / keyint=240 / keyint_min=23 / scenecut=40 / intra_refresh=0 / rc_lookahead=80 / rc=2pass / mbtree=0 / bitrate=4500 / ratetol=1.0 / qcomp=0.70 / qpmin=0:0:0 / qpmax=69:69:69 / qpstep=4 / cplxblur=20.0 / qblur=0.5 / vbv_maxrate=20000 / vbv_bufsize=25000 / nal_hrd=none / filler=0 / ip_ratio=1.35 / pb_ratio=1.25 / aq=2:0.80 / aq-sensitivity=12.00 / aq-factor=1.00:1.00:1.00 / aq2=0 / aq3=0
Язык : Korean
Default : Да
Forced : Нет

Аудио #1
Идентификатор : 2
Формат : AC-3
Формат/Информация : Audio Coding 3
Расширение режима : CM (complete main)
Параметр Endianness формата : Big
Идентификатор кодека : A_AC3
Продолжительность : 1 ч. 59 м.
Вид битрейта : Постоянный
Битрейт : 448 Кбит/сек
Каналы : 6 каналов
Расположение каналов : Front: L C R, Side: L R, LFE
Частота : 48,0 КГц
Метод сжатия : С потерями
Размер потока : 382 Мбайт (8%)
Заголовок : АС3 5.1 @ 448 kbps - AVO, Serbin
Язык : Russian
Default : Нет
Forced : Нет

Аудио #2
Идентификатор : 3
Формат : AC-3
Формат/Информация : Audio Coding 3
Расширение режима : CM (complete main)
Параметр Endianness формата : Big
Идентификатор кодека : A_AC3
Продолжительность : 1 ч. 59 м.
Вид битрейта : Постоянный
Битрейт : 448 Кбит/сек
Каналы : 6 каналов
Расположение каналов : Front: L C R, Side: L R, LFE
Частота : 48,0 КГц
Метод сжатия : С потерями
Размер потока : 382 Мбайт (8%)
Заголовок : АС3 5.1 @ 448 kbps - Original
Язык : Korean
Default : Нет
Forced : Нет

Текст #1
Идентификатор : 4
Формат : UTF-8
Идентификатор кодека : S_TEXT/UTF8
Идентификатор кодека/Информация : UTF-8 Plain Text
Заголовок : Full
Язык : Russian
Default : Нет
Forced : Нет

Текст #2
Идентификатор : 5
Формат : UTF-8
Идентификатор кодека : S_TEXT/UTF8
Идентификатор кодека/Информация : UTF-8 Plain Text
Заголовок : Full
Язык : English
Default : Нет
Forced : Нет

Меню
00:00:00.000 : :Chapter 01
00:05:42.383 : :Chapter 02
00:15:44.944 : :Chapter 03
00:24:13.910 : :Chapter 04
00:30:48.054 : :Chapter 05
00:39:35.372 : :Chapter 06
00:44:30.667 : :Chapter 07
00:47:30.430 : :Chapter 08
00:52:26.184 : :Chapter 09
00:59:52.422 : :Chapter 10
01:05:02.565 : :Chapter 11
01:09:19.655 : :Chapter 12
01:15:24.770 : :Chapter 13
01:26:26.055 : :Chapter 14
01:32:15.655 : :Chapter 15
01:39:27.419 : :Chapter 16
01:45:03.922 : :Chapter 17
01:50:52.479 : :Chapter 18

"x264 log"

x264 [info]: frame I:1113 Avg QP:17.04 size: 84768
x264 [info]: frame P:34174 Avg QP:19.36 size: 40824
x264 [info]: frame B:136409 Avg QP:21.06 size: 18606

x264 [info]: consecutive B-frames: 1.4% 1.7% 3.8% 17.7% 23.4% 33.4% 9.8% 4.1% 2.0% 1.5% 0.6% 0.6%

x264 [info]: ref P L0: 41.6% 10.6% 15.4% 7.8% 5.9% 4.6% 3.8% 2.3% 2.0% 1.7% 1.5% 1.4% 1.3% 0.1% 0.0%
x264 [info]: ref B L0: 74.2% 8.9% 5.3% 2.8% 2.2% 1.8% 1.5% 0.9% 0.8% 0.7% 0.6% 0.4%
x264 [info]: ref B L1: 92.8% 7.2%


Ссылки для скачивания:

http//bt.hqclub.net/files/ok.png Торрент: Горечь и сладость / Горько-сладкая жизнь / A Bittersweet Life / Dalkomhan insaeng (2005) BDRip-AVC

Лучшая онлайн игра!


Публикация материалов сайта на сторонних ресурсах возможна только в неизменном виде.


Обсудить релиз на форуме

Вас также может заинтересовать:


  • 5
 (Голосов: 2)


Распечатать новость на принтере Боевик, Драма, Криминал
Обновлено: 26.11.2015 - 20:12