Вас Приветствует Релиз-группа HQCLUB


Помощь ресурсу, очень ВАЖНО!!!



.


WELCOME
Добро пожаловать в наше интернет - сообщество!

Всех нас объединяет одна страсть - страсть к высококачественному кино. А это наш сайт. Ежедневно здесь мы публикуем десятки качественных, свежих, а порой и эксклюзивных релизов, которые Вы можете скачать совершенно бесплатно и без каких-либо регистраций. Посему рекомендуем Вам добавить HQClub себе в закладки, а также подписаться на нашу ленту новостей, чтобы всегда быть в курсе всех событий. Ну а если Вы такой же синий фил, как и мы, то милости просим на наш форум. И в заключение, попробуйте зарегистрироваться, ведь не так это и сложно и займет всего лишь пару минут! Вот увидите, Вам у нас понравится и Вы вольетесь в наш дружный коллектив! Ну а пока - осматривайтесь = )
Мы рады Вам !





Александр / Alexander [The Ultimate Cut] (2004) BDRip 720p

Оформил: Elheym | 10 мая 2015 - 17:26:25 | Комментариев: 1 | Обращений: 669 {bookmarks_news}

http//lostpic.net/orig_images/b/2/5/b2552154cceaba9a6a37e14fc887.gif

Информация о фильме:
Название: Александр
Оригинальное название: Alexander
Год выхода: 2004
Жанр: боевик, драма, мелодрама, приключения, военный, биография, история
Режиссер: Оливер Стоун / Oliver Stone
В ролях: Колин Фаррелл, Джаред Лето, Анджелина Джоли, Вэл Килмер, Розарио Доусон, Кристофер Пламмер, Энтони Хопкинс, Дэвид Беделла, Джесси Камм, Фиона О`Шонесси, Коннор Паоло, Патрик Кэрролл, Брайан Блессед, Питер Уильямсон, Морган Кристофер Феррис, Robert Earley, Aleczander Gordon, Гари Стретч, Джон Кэвэна, Ник Даннинг, Мари Мейер

О фильме: Спустя 40 лет после гибели Александра пожилой Птолемей, один из ближайших соратников Македонского, ставший после его смерти наместником Египта, решает рассказать и записать историю побед великого полководца. В течение восьми лет войско Александра Великого двигалось на Восток, к берегам мирового Океана.

Покорив Западную и Центральную Азию, Македонский первым ступил на загадочную и таинственную землю древней Индии. Об этом он мечтал ещё в детстве, слушая мифы о Трое, подвигах Геракла и Ахиллеса…

«Судьба благоволит храбрым»



http//rating.kinopoisk.ru/4721.gif http//tracker.0day.kiev.ua/imdb/imdb_tt03461.gif

Релиз от - http//hqclub.net/images/hqclub.png
Автор рипа: Elheym

Выпущено: Германия, США, Нидерланды, Франция, Великобритания, Италия, Egmond Film & Television, France 3 Cinéma, IMF Internationale Medien und Film GmbH & Co. 3. Produktions KG, Intermedia Films, Pacifica Film, Pathé Renn Productions, Warner Bros. Pictures
Продолжительность: 03:26:47
Перевод: Авторский (одноголосый, закадровый) Ю. Сербин
Оригинальная аудиодорожка: английская
Субтитры: русские (полные), английские (полные, полные SDH, полные SDH цветные)
Главы: присутствуют, сохранены оригинальные

Файл:
Формат: MKV
Качество: BDRip 720p (источник: http//hdclub.org/dox/sitebutton_tracker.hdclub.com.ua1.gif / Blu-ray Custom [ALEXANDER_THE_ULTIMATE_CUT_2004_HDCLUB] / 1080p)
Видео: 1280x534 (2.40:1), 23.976 fps, MPEG-4 AVC, ~8600 kbps avg, 0.525 bit/pixel
Аудио #1: 48 kHz, DTS, 3/2 (L,C,R,l,r) + LFE ch, ~1509 kbps avg (AVO.SERBIN)
Аудио #2: 48 kHz, DTS, 3/2 (L,C,R,l,r) + LFE ch, ~1509 kbps avg (ENG)
Размер: 16.8 GB
Сэмпл: скачать

http//lostpic.net/thumbs_images/e/b/e/ebe91da0961e613452917fbacdc18ce7.png http//lostpic.net/thumbs_images/8/c/1/8c199b932b28d5d2774f70a3e65623eb.png http//lostpic.net/thumbs_images/f/f/5/ff59afccae42acafb1064eca5fe3ae.png http//lostpic.net/thumbs_images/3/0/7/307ef3aa20273d4dd0ed63c2d11b5c99.png http//lostpic.net/thumbs_images/d/1/7/d17d52772af58335312a4fc21ee6a7f8.png

"MediaInfo"

Полное имя : Alexander.UC.2004.720p.BluRay.Rus.Eng.-HQCLUB.mkv
Формат : Matroska
Версия формата : Version 2
Размер файла : 16,8 Гбайт
Продолжительность : 3 ч. 26 м.
Общий поток : 11,6 Мбит/сек
Название фильма : Александр / Alexander [The Ultimate Cut] (2004) BDRip 720p by HQCLUB [Elheym]
Дата кодирования : UTC 2015-05-10 13:12:04
Программа кодирования : mkvmerge v5.2.0 ('I can't explain') built on Dec 18 2011 18:12:03
Библиотека кодирования : libebml v1.2.3 + libmatroska v1.3.0
Attachements : Cover.jpg

Видео
Идентификатор : 1
Формат : AVC
Формат/Информация : Advanced Video Codec
Профиль формата : High@L4.1
Параметр CABAC формата : Да
Параметр ReFrames формата : 11 кадров
Идентификатор кодека : V_MPEG4/ISO/AVC
Продолжительность : 3 ч. 26 м.
Битрейт : 8600 Кбит/сек
Ширина : 1280 пикселей
Высота : 534 пикселя
Соотношение сторон : 2,40:1
Режим частоты кадров : Постоянный
Частота кадров : 23,976 кадра/сек
Цветовое пространство : YUV
Субдискретизация насыщенности : 4:2:0
Битовая глубина : 8 бит
Тип развёртки : Прогрессивная
Бит/(Пиксели*Кадры) : 0.525
Размер потока : 12,1 Гбайт (72%)
Заголовок : Александр / Alexander [The Ultimate Cut] (2004) BDRip 720p by HQCLUB [Elheym]
Библиотека кодирования : x264 core 146 r2538kMod 121396c
Настройки программы : cabac=1 / ref=11 / deblock=1:-3:-2 / analyse=0x3:0x113 / me=umh / subme=11 / psy=1 / fade_compensate=0.00 / psy_rd=1.10:0.00 / mixed_ref=1 / me_range=32 / chroma_me=1 / trellis=2 / 8x8dct=1 / cqm=0 / deadzone=21,11 / fast_pskip=0 / chroma_qp_offset=-2 / threads=6 / lookahead_threads=2 / sliced_threads=0 / nr=0 / decimate=0 / interlaced=0 / bluray_compat=0 / constrained_intra=0 / fgo=0 / bframes=12 / b_pyramid=2 / b_adapt=2 / b_bias=0 / direct=3 / weightb=1 / open_gop=0 / weightp=2 / keyint=230 / keyint_min=23 / scenecut=40 / intra_refresh=0 / rc_lookahead=80 / rc=2pass / mbtree=0 / bitrate=8600 / ratetol=1.0 / qcomp=0.85 / qpmin=0 / qpmax=69 / qpstep=4 / cplxblur=20.0 / qblur=0.5 / vbv_maxrate=50000 / vbv_bufsize=62500 / nal_hrd=none / filler=0 / ip_ratio=1.40 / pb_ratio=1.30 / aq=2:1.05 / zones=289060,297475,b=0.24
Язык : English
Default : Да
Forced : Нет

Аудио #1
Идентификатор : 2
Формат : DTS
Формат/Информация : Digital Theater Systems
Режим : 16
Параметр Endianness формата : Big
Идентификатор кодека : A_DTS
Продолжительность : 3 ч. 26 м.
Вид битрейта : Постоянный
Битрейт : 1509 Кбит/сек
Каналы : 6 каналов
Расположение каналов : Front: L C R, Side: L R, LFE
Частота : 48,0 КГц
Битовая глубина : 24 бит
Метод сжатия : С потерями
Размер потока : 2,18 Гбайт (13%)
Заголовок : DTS 5.1 @ 1509 kbps - AVO, Serbin
Язык : Russian
Default : Нет
Forced : Нет

Аудио #2
Идентификатор : 3
Формат : DTS
Формат/Информация : Digital Theater Systems
Режим : 16
Параметр Endianness формата : Big
Идентификатор кодека : A_DTS
Продолжительность : 3 ч. 26 м.
Вид битрейта : Постоянный
Битрейт : 1509 Кбит/сек
Каналы : 6 каналов
Расположение каналов : Front: L C R, Side: L R, LFE
Частота : 48,0 КГц
Битовая глубина : 24 бит
Метод сжатия : С потерями
Размер потока : 2,18 Гбайт (13%)
Заголовок : DTS 5.1 @ 1509 kbps - Original
Язык : English
Default : Нет
Forced : Нет

Текст #1
Идентификатор : 4
Формат : UTF-8
Идентификатор кодека : S_TEXT/UTF8
Идентификатор кодека/Информация : UTF-8 Plain Text
Заголовок : Full
Язык : Russian
Default : Нет
Forced : Нет

Текст #2
Идентификатор : 5
Формат : UTF-8
Идентификатор кодека : S_TEXT/UTF8
Идентификатор кодека/Информация : UTF-8 Plain Text
Заголовок : Full
Язык : English
Default : Нет
Forced : Нет

Текст #3
Идентификатор : 6
Формат : UTF-8
Идентификатор кодека : S_TEXT/UTF8
Идентификатор кодека/Информация : UTF-8 Plain Text
Заголовок : Full SDH
Язык : English
Default : Нет
Forced : Нет

Текст #4
Идентификатор : 7
Формат : UTF-8
Идентификатор кодека : S_TEXT/UTF8
Идентификатор кодека/Информация : UTF-8 Plain Text
Заголовок : Full SDH Colored
Язык : English
Default : Нет
Forced : Нет

Меню
00:00:00.000 : :Chapter 01
...
03:26:34.255 : :Chapter 47

"x264 log"

x264 [info]: frame I:2012 Avg QP:12.56 size:147877
x264 [info]: frame P:78016 Avg QP:14.75 size: 75754
x264 [info]: frame B:217448 Avg QP:16.62 size: 32775

x264 [info]: consecutive B-frames: 3.9% 5.7% 10.1% 37.1% 15.1% 22.1% 3.2% 2.0% 0.3% 0.2% 0.1% 0.1% 0.2%

x264 [info]: ref P L0: 45.5% 12.0% 16.8% 6.1% 5.3% 3.6% 3.4% 1.9% 1.9% 1.5% 1.6% 0.3% 0.0%
x264 [info]: ref B L0: 83.1% 8.0% 3.0% 1.8% 1.2% 1.1% 0.8% 0.6% 0.3% 0.2%
x264 [info]: ref B L1: 96.4% 3.6%

Цитата:

Исходные диск, а так же перевод и работа над релизом, выполнены в рамках сервиса "Копилка: Помоги с Blu-ray". Спонсоры: RAUL, remo, yuriker, alxsha, Baron0580, Кириллка, nekazz, schepa99, gelom, HDClubLub, igrok2012, Bulfrogg, PoHHaN, Igor_konst, yuriksks, Pertcev, Dinamitik, lemonarium, tambov68, Литти, Ex1l, DeTorquemada, Dervish, absolutd, ZeRoNe, Andresoff, Insider1, genn_, walera329, mvch73, IblackjackI, frost_lucky, Moiseika, pollosatik, Marshal, Aurelio, goblinpuchkov.
Русские субтиры набиты по переводу Ю. Сербина. За работу большая благодарность Pro_Rock_-у.
Местами видны "бордюры".


Ссылки для скачивания:

http//bt.hqclub.net/files/ok.png Торрент: Александр / Alexander [The Ultimate Cut] (2004) BDRip 720p

Лучшая онлайн игра!


Публикация материалов сайта на сторонних ресурсах возможна только в неизменном виде.


Обсудить релиз на форуме

Вас также может заинтересовать:


  • 3
 (Голосов: 5)


Распечатать новость на принтере Боевик, Драма, Мелодрама, Приключения, Военный, Биография

КОММЕНТАРИИ

 №1. ru4lan

Статус: Кинокритик | Новостей: 0 | Комментариев: 2736
ru4lan Большеват для меня
~~~

11.05.2015 - 02:15   цитировать