Вас Приветствует Релиз-группа HQCLUB


Помощь ресурсу, очень ВАЖНО!!!



.


WELCOME
Добро пожаловать в наше интернет - сообщество!

Всех нас объединяет одна страсть - страсть к высококачественному кино. А это наш сайт. Ежедневно здесь мы публикуем десятки качественных, свежих, а порой и эксклюзивных релизов, которые Вы можете скачать совершенно бесплатно и без каких-либо регистраций. Посему рекомендуем Вам добавить HQClub себе в закладки, а также подписаться на нашу ленту новостей, чтобы всегда быть в курсе всех событий. Ну а если Вы такой же синий фил, как и мы, то милости просим на наш форум. И в заключение, попробуйте зарегистрироваться, ведь не так это и сложно и займет всего лишь пару минут! Вот увидите, Вам у нас понравится и Вы вольетесь в наш дружный коллектив! Ну а пока - осматривайтесь = )
Мы рады Вам !





Принц Персии: Пески времени / Prince of Persia: The Sands of Time (2010) BDRip 1080p

Оформил: Rensler | 3 сентября 2016 - 17:42:15 | Обращений: 656 {bookmarks_news}

http//img10.lostpic.net/2016/09/02/7226ac91514172e35cff635fdb29ab.png



Информация о фильме
Название: Принц Персии: Пески времени
Оригинальное название: Prince of Persia: The Sands of Time
Год выхода: 2010
Жанр: Боевик, Фэнтези, Приключения, Мелодрама
В ролях: Джейк Джилленхол (Dastan), Джемма Артертон (Tamina), Бен Кингсли (Nizam), Альфред Молина (Sheik Amar), Стив Туссэн (Seso), Тоби Кеббелл (Garsiv), Ричард Койл (Tus), Рональд Пикап (King Sharaman), Рис Ричи (Bis), Гисли Орн Гардарссон (Hassansin Leader), Клаудио Пасифико (Hassansin Porcupine), Томас Дюпон (Hassansin Whip Man)
Режиссёр: Майк Ньюэлл / Mike Newell

О фильме:
Главный герой этой экранизации культовой компьютерной игры, юный принц Дастан всегда побеждал врагов в бою, но потерял королевство из-за козней коварного царедворца. Теперь Дастану предстоит похитить из рук злодеев могущественный магический артефакт, способный повернуть время вспять и сделать своего владельца властелином мира. Помочь одолеть врагов Дастану помогут его блестящие навыки владения холодным оружием, а также недюжинные способности к акробатике и эквилибристике.

«Загляни в будущее»



User Rating: 7,3/10 (120 005 votes)
IMDB: 6,7/10 (223 315 votes)

Релиз от - http//lostpic.net/images/2015/09/27/68f6040cf6d8c2a9ae7072059386b6f9.png
Автор рипа: Rensler

Выпущено: США
Студия: Jerry Bruckheimer Films, Walt Disney Pictures
Продолжительность: 01:55:53
Перевод:
• Профессиональный (полное дублирование) BD CEE
• Авторский (одноголосый, закадровый) «Юрий Сербин»
• Авторский (одноголосый, закадровый) «А.Гаврилов»
Оригинальная аудиодорожка: Английская
Субтитры: Русские (форсированные, полные, полные цветные), Английские (полные, полные цветные, SDH)
Главы: Сохранены чаптеры с оригинального Blu-ray Disc

Файл:
Формат: MKV
Качество: BDRip 1080p (источник: BLUEBIRD / Blu-ray Disc)
Видео: 1980x800 (0% AR dist.) (2,40:1) at 23.976, x264@L4.1 ~ 17,9 Мбит/сек, 0.487 bit/pixel
Аудио#1: 48 kHz/16-bit, AC3 Dolby Digital, 3/2 (L,C,R,l,r) + LFE ch, ~ 640 kbps avg | RUS, Blu-ray «Nevafilm»
Аудио#2: 48 kHz/16-bit, AC3 Dolby Digital, 3/2 (L,C,R,l,r) + LFE ch, ~ 640 kbps avg | RUS, Y.Serbin
Аудио#3: 48 kHz/24-bit, DTS, 3/2 (L,C,R,l,r) + LFE ch, ~ 1509.00 kbps avg | RUS, А.Gavrilov
Аудио#4: 48 kHz/24-bit, DTS, 3/2 (L,C,R,l,r) + LFE ch, ~ 1509.00 kbps avg | ENG
Скачать: Семпл

"MI@logx.264"
logx.264 написал:

x264 [info]: frame I:1224 Avg QP:18.08 size:222812
x264 [info]: frame P:36121 Avg QP:19.13 size:124940
x264 [info]: frame B:129372 Avg QP:20.25 size: 83437
x264 [info]: consecutive B-frames: 1.9% 2.9% 8.6% 18.2% 15.8% 46.2% 3.8% 0.8% 0.8% 0.8% 0.6%
x264 [info]: ref P L0: 53.7% 6.8% 22.0% 10.9% 6.3% 0.3% 0.0

MediaInfo написал:
Уникальный идентификатор : 221001679679551465097018133268335852506 (0xA643601165E363CC930633C2F64A7BDA)
Полное имя : Prinz.Persii.Peski.Vremeni.2010.BluRay.1080p.Rus.Eng.-HQCLUB.mkv
Формат : Matroska
Версия формата : Version 4 / Version 2
Размер файла : 18,0 Гбайт
Продолжительность : 1 ч. 55 м.
Общий поток : 22,2 Мбит/сек
Название фильма : Принц Персии: Пески времени / Prince of Persia: The Sands of Time (2010) BDRip 1080p
Дата кодирования : UTC 2016-09-02 17:00:42
Программа кодирования : mkvmerge v8.3.0 ('Over the Horizon') 64bit
Библиотека кодирования : libebml v1.3.1 + libmatroska v1.4.2
Attachements : Prinz_Persii.png

Видео
Идентификатор : 1
Формат : AVC
Формат/Информация : Advanced Video Codec
Профиль формата : High@L4.1
Параметр CABAC формата : Да
Параметр ReFrames формата : 5 кадров
Идентификатор кодека : V_MPEG4/ISO/AVC
Продолжительность : 1 ч. 55 м.
Битрейт : 17,9 Мбит/сек
Ширина : 1920 пикселей
Высота : 800 пикселей
Соотношение сторон : 2,40:1
Режим частоты кадров : Постоянный
Частота кадров : 23,976 кадра/сек
Цветовое пространство : YUV
Субдискретизация насыщенности : 4:2:0
Битовая глубина : 8 бит
Тип развёртки : Прогрессивная
Бит/(Пиксели*Кадры) : 0.487
Размер потока : 14,2 Гбайт (79%)
Заголовок : Release by Rensler
Библиотека кодирования : x264 core 148 r2692 64f4e24
Настройки программы : cabac=1 / ref=5 / deblock=1:-3:-3 / analyse=0x3:0x113 / me=esa / subme=10 / psy=1 / psy_rd=0.90:0.20 / mixed_ref=1 / me_range=24 / chroma_me=1 / trellis=2 / 8x8dct=1 / cqm=0 / deadzone=21,11 / fast_pskip=0 / chroma_qp_offset=-3 / threads=3 / lookahead_threads=1 / sliced_threads=0 / nr=0 / decimate=0 / interlaced=0 / bluray_compat=0 / constrained_intra=0 / bframes=10 / b_pyramid=2 / b_adapt=2 / b_bias=0 / direct=3 / weightb=1 / open_gop=0 / weightp=2 / keyint=230 / keyint_min=23 / scenecut=40 / intra_refresh=0 / rc_lookahead=40 / rc=2pass / mbtree=0 / bitrate=17935 / ratetol=1.0 / qcomp=0.65 / qpmin=0 / qpmax=69 / qpstep=4 / cplxblur=20.0 / qblur=0.5 / vbv_maxrate=50000 / vbv_bufsize=62500 / nal_hrd=none / filler=0 / ip_ratio=1.25 / pb_ratio=1.15 / aq=2:0.85
Язык : English
Default : Да
Forced : Нет
Цветовой диапазон : Limited
Основные цвета : BT.709
Характеристики трансфера : BT.709
Коэффициенты матрицы : BT.709

Аудио #1
Идентификатор : 2
Формат : AC-3
Формат/Информация : Audio Coding 3
Расширение режима : CM (complete main)
Параметр Endianness формата : Big
Идентификатор кодека : A_AC3
Продолжительность : 1 ч. 55 м.
Вид битрейта : Постоянный
Битрейт : 640 Кбит/сек
Каналы : 6 каналов
Расположение каналов : Front: L C R, Side: L R, LFE
Частота : 48,0 КГц
Метод сжатия : С потерями
Размер потока : 531 Мбайт (3%)
Заголовок : BD CEE
Язык : Russian
Default : Да
Forced : Нет

Аудио #2
Идентификатор : 3
Формат : AC-3
Формат/Информация : Audio Coding 3
Расширение режима : CM (complete main)
Параметр Endianness формата : Big
Идентификатор кодека : A_AC3
Продолжительность : 1 ч. 55 м.
Вид битрейта : Постоянный
Битрейт : 640 Кбит/сек
Каналы : 6 каналов
Расположение каналов : Front: L C R, Side: L R, LFE
Частота : 48,0 КГц
Метод сжатия : С потерями
Размер потока : 531 Мбайт (3%)
Заголовок : AVO Y.Serbin
Язык : Russian
Default : Нет
Forced : Нет

Аудио #3
Идентификатор : 4
Формат : DTS
Формат/Информация : Digital Theater Systems
Режим : 16
Параметр Endianness формата : Big
Идентификатор кодека : A_DTS
Продолжительность : 1 ч. 55 м.
Вид битрейта : Постоянный
Битрейт : 1509 Кбит/сек
Каналы : 6 каналов
Расположение каналов : Front: L C R, Side: L R, LFE
Частота : 48,0 КГц
Битовая глубина : 24 бит
Метод сжатия : С потерями
Размер потока : 1,22 Гбайт (7%)
Заголовок : AVO А.Gavrilov
Язык : Russian
Default : Нет
Forced : Нет

Аудио #4
Идентификатор : 5
Формат : DTS
Формат/Информация : Digital Theater Systems
Режим : 16
Параметр Endianness формата : Big
Идентификатор кодека : A_DTS
Продолжительность : 1 ч. 55 м.
Вид битрейта : Постоянный
Битрейт : 1509 Кбит/сек
Каналы : 6 каналов
Расположение каналов : Front: L C R, Side: L R, LFE
Частота : 48,0 КГц
Битовая глубина : 24 бит
Метод сжатия : С потерями
Размер потока : 1,22 Гбайт (7%)
Заголовок : Original
Язык : English
Default : Нет
Forced : Нет

Текст #1
Идентификатор : 6
Формат : UTF-8
Идентификатор кодека : S_TEXT/UTF8
Идентификатор кодека/Информация : UTF-8 Plain Text
Заголовок : Forced
Язык : Russian
Default : Да
Forced : Нет

Текст #2
Идентификатор : 7
Формат : UTF-8
Идентификатор кодека : S_TEXT/UTF8
Идентификатор кодека/Информация : UTF-8 Plain Text
Заголовок : Full 1
Язык : Russian
Default : Нет
Forced : Нет

Текст #3
Идентификатор : 8
Формат : ASS
Идентификатор кодека : S_TEXT/ASS
Идентификатор кодека/Информация : Advanced Sub Station Alpha
Метод сжатия : Без потерь
Заголовок : Full 2
Язык : Russian
Default : Нет
Forced : Нет

Текст #4
Идентификатор : 9
Формат : UTF-8
Идентификатор кодека : S_TEXT/UTF8
Идентификатор кодека/Информация : UTF-8 Plain Text
Заголовок : Full 1
Язык : English
Default : Нет
Forced : Нет

Текст #5
Идентификатор : 10
Формат : ASS
Идентификатор кодека : S_TEXT/ASS
Идентификатор кодека/Информация : Advanced Sub Station Alpha
Метод сжатия : Без потерь
Заголовок : Full 2
Язык : English
Default : Нет
Forced : Нет

Текст #6
Идентификатор : 11
Формат : UTF-8
Идентификатор кодека : S_TEXT/UTF8
Идентификатор кодека/Информация : UTF-8 Plain Text
Заголовок : SDH
Язык : English
Default : Нет
Forced : Нет

Меню
00:00:00.000 : en:Chapter 01
00:04:24.556 : en:Chapter 02
00:08:37.392 : en:Chapter 03
00:16:52.762 : en:Chapter 04
00:22:51.579 : en:Chapter 06
00:29:07.788 : en:Chapter 07
00:32:57.851 : en:Chapter 08
00:36:58.174 : en:Chapter 09
00:40:31.095 : en:Chapter 10
00:46:08.265 : en:Chapter 11
00:58:00.727 : en:Chapter 12
01:00:17.030 : en:Chapter 13
01:07:01.100 : en:Chapter 14
01:10:47.743 : en:Chapter 15
01:15:46.459 : en:Chapter 16
01:20:37.124 : en:Chapter 17
01:27:37.294 : en:Chapter 18
01:32:19.367 : en:Chapter 19
01:40:51.671 : en:Chapter 20
01:48:29.753 : en:Chapter 21


http//img10.lostpic.net/2016/09/03/299422efd0e1756bd89d0747137cde.th.jpg http//img10.lostpic.net/2016/09/03/a6f140d672f4c39cb3d3931fc0152160.th.jpg http//img10.lostpic.net/2016/09/03/162efb99509c476f406d91b03274.th.jpg http//img10.lostpic.net/2016/09/03/5c342653715d51256b6ce01d07e611d3.th.jpg
http//img10.lostpic.net/2016/09/03/9063e283d989bccdf90276eb35f29e06.th.jpg http//img10.lostpic.net/2016/09/03/828f4e9bd6f0244d51088e860b84d798.th.jpg http//img10.lostpic.net/2016/09/03/56dbc931d2e1aae596e12bbcd4d46ba8.th.jpg http//img10.lostpic.net/2016/09/03/5a942c16a4a88e0e7eee75fb0366f9fb.th.jpg

Ссылки для скачивания:

http//bt.hqclub.net/files/ok.pngТоррент: Принц Персии: Пески времени / Prince of Persia: The Sands of Time (2010) BDRip 1080p


Публикация материалов сайта на сторонних ресурсах возможна только в неизменном виде.


Обсудить релиз на форуме

Вас также может заинтересовать:


  • 5
 (Голосов: 12)


Распечатать новость на принтере Боевик, Фэнтези, Приключения, Мелодрама