Вас Приветствует Релиз-группа HQCLUB


Помощь ресурсу, очень ВАЖНО!!!



.


WELCOME
Добро пожаловать в наше интернет - сообщество!

Всех нас объединяет одна страсть - страсть к высококачественному кино. А это наш сайт. Ежедневно здесь мы публикуем десятки качественных, свежих, а порой и эксклюзивных релизов, которые Вы можете скачать совершенно бесплатно и без каких-либо регистраций. Посему рекомендуем Вам добавить HQClub себе в закладки, а также подписаться на нашу ленту новостей, чтобы всегда быть в курсе всех событий. Ну а если Вы такой же синий фил, как и мы, то милости просим на наш форум. И в заключение, попробуйте зарегистрироваться, ведь не так это и сложно и займет всего лишь пару минут! Вот увидите, Вам у нас понравится и Вы вольетесь в наш дружный коллектив! Ну а пока - осматривайтесь = )
Мы рады Вам !





Значит, война / This Means War [Director's Cut] (2012) BDRip 720p

Оформил: Sky™ | 12 июня 2012 - 10:56:31 | Обращений: 1671 {bookmarks_news}

http//lostpic.net/images/f751787f4b08dec788fbd4fa2063f4ee.png

Информация о фильме:
Название: Значит, война
Оригинальное название: This Means War
Год выхода: 2012
Жанр: боевик, мелодрама, комедия
Режиссер: МакДжи
В ролях: Том Харди, Крис Пайн, Риз Уизерспун, Тиль Швайгер, Челси Хэндлер, Джон Пол Руттан, Эбигейл Спенсер, Анджела Бассетт, Розмари Харрис, Джордж Тулиатос

О фильме: Два секретных агента, которые к тому же и закадычные друзья, влюбляются в одну и ту же женщину, но ни один не желает уступить другому.

«2 шпиона - 1 проблема»



http//www.kinopoisk.ru/rating/7233.gif

Релиз от - http//hqclub.net/images/hqclub.png
Автор рипа: Sky™

Выпущено: США (Overbrook Entertainment, ...)
Продолжительность: 01:44:00
Перевод: Профессиональный (полное дублирование) BD EUR + Оригинальная звуковая дорожка (Английский) + Украинский (полное дублирование) BD EUR
Субтитры: Русские (2 вида) Английские Е. Воронин (*.srt, отключаемые)

Файл:
Формат: mkv
Качество: BDRip 720p (источник: http//lostpic.net/images/953a96a00e963ac6907f450837a55c1e.png / Blu-Ray Disc EUR / 1080p)
Видео: 1280x534 (2.40:1), 23.976 fps, x264@L4.1 ~4746 kbps avg, 0.29 bit/pixel
Аудио #1: 48 kHz, Digital Theater System, 3/2 (L,C,R,l,r) + LFE ch, ~768 kbps avg (RUS) BD EUR
Аудио #2: 48 kHz, Digital Theater System, 3/2 (L,C,R,l,r) + LFE ch, ~1509 kbps avg (ENG)
Аудио #3: 48 kHz, AC3 Dolby Digital, 3/2 (L,C,R,l,r) + LFE ch, ~448 kbps avg (UKR) BD EUR
Размер: 5660.72 Mb
http//lostpic.net/images/1b899dddff9c84e7020a856612f5c646.png

http//lostpic.net/thumbs/5d8b9445ea803547d6791b998c4c512a.png http//lostpic.net/thumbs/fb68faed56d9b208982b3c5c898ebb8a.png http//lostpic.net/thumbs/6e25913f718339cd1e84ae1379125acb.png http//lostpic.net/thumbs/8f12141859c938646f91da4546790459.png http//lostpic.net/thumbs/46b5bce06aa920d907ae1f356bf604f5.png
MediaINFO
Полное имя : Znachit.vojna.2012.BDRip.720p.H264.DTS.AC3.-HQCLUB.mkv
Формат : Matroska
Версия формата : Version 2
Размер файла : 5,53 Гбайт
Продолжительность : 1 ч. 44 м.
Общий поток : 7610 Кбит/сек
Дата кодирования : UTC 2012-06-12 05:17:16
Программа кодирования : mkvmerge v5.5.0 ('Healer') built on Apr 6 2012 21:43:24
Библиотека кодирования : libebml v1.2.3 + libmatroska v1.3.0

Видео
Идентификатор : 1
Формат : AVC
Формат/Информация : Advanced Video Codec
Профиль формата : High@L4.1
Параметр CABAC формата : Да
Параметр ReFrames формата : 9 кадров
Идентификатор кодека : V_MPEG4/ISO/AVC
Продолжительность : 1 ч. 44 м.
Битрейт : 4746 Кбит/сек
Ширина : 1280 пикселей
Высота : 534 пикселя
Соотношение сторон : 2,40:1
Частота кадров : 23,976 кадра/сек
Цветовое пространство : YUV
Субдискретизация насыщенности : 4:2:0
Битовая глубина : 8 бит
Тип развёртки : Прогрессивная
Бит/(Пиксели*Кадры) : 0.290
Размер потока : 3,45 Гбайт (62%)
Заголовок : Значит, война / This Means War [Director's Cut] (2012) BDRip 720p | HQCLUB
Библиотека кодирования : x264 core 120 r2164 da19765
Настройки программы : cabac=1 / ref=9 / deblock=1:-3:-3 / analyse=0x3:0x113 / me=umh / subme=9 / psy=1 / psy_rd=1.00:0.00 / mixed_ref=1 / me_range=64 / chroma_me=1 / trellis=2 / 8x8dct=1 / cqm=0 / deadzone=21,11 / fast_pskip=1 / chroma_qp_offset=-2 / threads=6 / sliced_threads=0 / nr=0 / decimate=1 / interlaced=0 / bluray_compat=0 / constrained_intra=0 / bframes=12 / b_pyramid=2 / b_adapt=2 / b_bias=0 / direct=1 / weightb=1 / open_gop=0 / weightp=2 / keyint=230 / keyint_min=22 / scenecut=40 / intra_refresh=0 / rc=cqp / mbtree=0 / qp=21 / ip_ratio=1.40 / pb_ratio=1.30 / aq=0
Язык : English
Default : Да
Forced : Нет

Аудио #1
Идентификатор : 2
Формат : DTS
Формат/Информация : Digital Theater Systems
Идентификатор кодека : A_DTS
Продолжительность : 1 ч. 44 м.
Вид битрейта : Постоянный
Битрейт : 755 Кбит/сек
Каналы : 6 каналов
Расположение каналов : Front: L C R, Side: L R, LFE
Частота : 48,0 КГц
Битовая глубина : 24 бит
Метод сжатия : С потерями
Размер потока : 561 Мбайт (10%)
Заголовок : Дубляж (BD EUR) DTS 5.1 @ 768 kbps
Язык : Russian
Default : Да
Forced : Да

Аудио #2
Идентификатор : 3
Формат : DTS
Формат/Информация : Digital Theater Systems
Идентификатор кодека : A_DTS
Продолжительность : 1 ч. 44 м.
Вид битрейта : Постоянный
Битрейт : 1510 Кбит/сек
Каналы : 6 каналов
Расположение каналов : Front: L C R, Side: L R, LFE
Частота : 48,0 КГц
Битовая глубина : 24 бит
Метод сжатия : С потерями
Размер потока : 1,10 Гбайт (20%)
Заголовок : Оригинал DTS 5.1 @ 1509 kbps
Язык : English
Default : Нет
Forced : Да

Аудио #3
Идентификатор : 4
Формат : AC-3
Формат/Информация : Audio Coding 3
Расширение режима : CM (complete main)
Параметр Endianness формата : Big
Идентификатор кодека : A_AC3
Продолжительность : 1 ч. 44 м.
Вид битрейта : Постоянный
Битрейт : 448 Кбит/сек
Каналы : 6 каналов
Расположение каналов : Front: L C R, Side: L R, LFE
Частота : 48,0 КГц
Битовая глубина : 16 бит
Метод сжатия : С потерями
Размер потока : 333 Мбайт (6%)
Заголовок : Дубляж (BD EUR) ac3 5.1 @ 448 kbps
Язык : Ukrainian
Default : Нет
Forced : Да

Текст #1
Идентификатор : 5
Формат : UTF-8
Идентификатор кодека : S_TEXT/UTF8
Идентификатор кодека/Информация : UTF-8 Plain Text
Заголовок : Forced (Е. Воронин)
Язык : Russian
Default : Да
Forced : Да

Текст #2
Идентификатор : 6
Формат : UTF-8
Идентификатор кодека : S_TEXT/UTF8
Идентификатор кодека/Информация : UTF-8 Plain Text
Заголовок : Full (Е. Воронин)
Язык : Russian
Default : Нет
Forced : Да

Текст #3
Идентификатор : 7
Формат : UTF-8
Идентификатор кодека : S_TEXT/UTF8
Идентификатор кодека/Информация : UTF-8 Plain Text
Заголовок : Full (Е. Воронин)
Язык : English
Default : Нет
Forced : Да

Меню
00:00:00.000 : en:00:00:00.000
00:06:05.824 : en:00:06:05.824
00:11:14.257 : en:00:11:14.257
00:15:22.463 : en:00:15:22.463
00:18:37.033 : en:00:18:37.033
00:22:51.203 : en:00:22:51.203
00:24:51.365 : en:00:24:51.365
00:28:22.701 : en:00:28:22.701
00:32:03.713 : en:00:32:03.713
00:37:39.466 : en:00:37:39.466
00:42:10.820 : en:00:42:10.820
00:45:56.253 : en:00:45:56.253
00:48:48.676 : en:00:48:48.676
00:52:16.133 : en:00:52:16.133
00:57:02.878 : en:00:57:02.878
01:03:23.258 : en:01:03:23.258
01:08:42.035 : en:01:08:42.035
01:16:30.586 : en:01:16:30.586
01:19:47.241 : en:01:19:47.241
01:23:12.362 : en:01:23:12.362
01:28:23.089 : en:01:28:23.089
01:33:12.170 : en:01:33:12.170
01:37:07.655 : en:01:37:07.655
01:38:50.049 : en:01:38:50.049

x264 log
---[NoImage] x264 [info]: frame I:1552 Avg QP:18.00 size:134478
---[NoImage] x264 [info]: frame P:30933 Avg QP:21.00 size: 46553
---[NoImage] x264 [info]: frame B:117131 Avg QP:22.76 size: 18429
---[NoImage] x264 [info]: consecutive B-frames: 2.3% 1.8% 4.5% 23.5% 16.6% 31.0% 9.5% 7.1% 1.3% 0.5% 0.4% 1.2% 0.1%
---[NoImage] x264 [info]: mb I I16..4: 9.4% 72.1% 18.6%
---[NoImage] x264 [info]: mb P I16..4: 1.5% 11.1% 1.5% P16..4: 35.5% 23.7% 15.0% 0.0% 0.0% skip:11.7%
---[NoImage] x264 [info]: mb B I16..4: 0.1% 0.9% 0.2% B16..8: 43.4% 10.7% 4.5% direct: 8.7% skip:31.5% L0:42.3% L1:45.4% BI:12.3%
---[NoImage] x264 [info]: 8x8 transform intra:76.5% inter:58.2%
---[NoImage] x264 [info]: coded y,uvDC,uvAC intra: 87.0% 88.7% 74.4% inter: 34.7% 36.2% 10.4%
---[NoImage] x264 [info]: i16 v,h,dc,p: 40% 22% 8% 29%
---[NoImage] x264 [info]: i8 v,h,dc,ddl,ddr,vr,hd,vl,hu: 14% 9% 6% 9% 14% 14% 13% 11% 11%
---[NoImage] x264 [info]: i4 v,h,dc,ddl,ddr,vr,hd,vl,hu: 14% 9% 4% 9% 15% 14% 13% 11% 12%
---[NoImage] x264 [info]: i8c dc,h,v,p: 43% 18% 18% 22%
---[NoImage] x264 [info]: Weighted P-Frames: Y:8.7% UV:5.6%
---[NoImage] x264 [info]: ref P L0: 42.7% 12.5% 20.5% 6.4% 6.2% 3.7% 3.9% 1.8% 2.1% 0.2% 0.0%
---[NoImage] x264 [info]: ref B L0: 73.1% 12.5% 5.7% 3.3% 2.2% 2.0% 0.9% 0.4%
---[NoImage] x264 [info]: ref B L1: 92.9% 7.1%


Ссылки для скачивания:

http//bt.hqclub.net/files/ok.png Торрент: Значит, война / This Means War [Director's Cut] (2012) BDRip 720p

Лучшая онлайн игра!


Публикация материалов сайта на сторонних ресурсах возможна только в неизменном виде.


Обсудить релиз на форуме

Вас также может заинтересовать:


  • 4
 (Голосов: 8)


Распечатать новость на принтере Боевик, Мелодрама, Комедия
Обновлено: 14.06.2012 - 16:12