Вас Приветствует Релиз-группа HQCLUB


Помощь ресурсу, очень ВАЖНО!!!



.


WELCOME
Добро пожаловать в наше интернет - сообщество!

Всех нас объединяет одна страсть - страсть к высококачественному кино. А это наш сайт. Ежедневно здесь мы публикуем десятки качественных, свежих, а порой и эксклюзивных релизов, которые Вы можете скачать совершенно бесплатно и без каких-либо регистраций. Посему рекомендуем Вам добавить HQClub себе в закладки, а также подписаться на нашу ленту новостей, чтобы всегда быть в курсе всех событий. Ну а если Вы такой же синий фил, как и мы, то милости просим на наш форум. И в заключение, попробуйте зарегистрироваться, ведь не так это и сложно и займет всего лишь пару минут! Вот увидите, Вам у нас понравится и Вы вольетесь в наш дружный коллектив! Ну а пока - осматривайтесь = )
Мы рады Вам !





22 минуты (2014) BDRip-AVC

Оформил: Gellard | 15 июня 2014 - 23:03:15 | Комментариев: 1 | Обращений: 1160 {bookmarks_news}

http//lostpic.net/orig_images/7/6/9/769cbb8f0a341c679cb1e7d40c3540bc.png

Информация о фильме:
Название: 22 минуты
Год выхода: 2014
Жанр: боевик
Режиссер: Василий Сериков
В ролях: Макар Запорожский, Денис Никифоров, Виктор Сухоруков, Екатерина Маликова, Гаэль Камилинди, Александр Галибин, Владислав Демин, Ибрагим Тооре, Софья Козко, Иван Породнов

О фильме: Морпех — первогодок Саня Ежов оказывается среди пиратов на захваченном танкере. Он знает — товарищи не бросят. Ему нужно выжить и помочь своим, когда начнется штурм. Фильм основан на реальных событиях 5 мая 2010 года, когда морские пехотинцы БПК «Маршал Шапошников» освободили захваченный в водах Аденского залива российский танкер «Московский университет». У них было только 22 минуты без права на ошибку…

«Своих не бросаем»



http//rating.kinopoisk.ru/644706.gif http//bluebird-hd.org/imdb/imdb_tt2856896.gif

Релиз от - http//hqclub.net/images/hqclub.png
Автор рипа: Elheym

Выпущено: Россия
Продолжительность: 01:22:48
Субтитры: нет
Главы: присутствуют, сохранены оригинальные

Файл:
Формат: MKV
Качество: BDRip-AVC (источник: rutracker / BD / 1080p)
Видео: 1024x432 (2.40:1), 23.976 fps, MPEG-4 AVC, ~2860 kbps avg, 0.269 bit/pixel
Аудио: 48 kHz, AC3 Dolby Digital, 3/2 (L,C,R,l,r) + LFE ch, ~384 kbps
Размер: 1.87 GB
Сэмпл: скачать

http//lostpic.net/thumbs_images/c/f/b/cfb454c27fdc41314b9ed70eb3f06ea2.png http//lostpic.net/thumbs_images/d/5/7/d2a45233e84299e28ba9a6c9737165.png http//lostpic.net/thumbs_images/6/e/8/6e812d3512e547f2a7e508bd221a47fa.png http//lostpic.net/thumbs_images/5/7/c/c75fd61bc53c8e3634ef2123b6aa1f.png http//lostpic.net/thumbs_images/2/d/7/2d77c4ee0b337b1b24f141265dcf7dfa.png http//lostpic.net/thumbs_images/a/7/2/a727b05bb9f350e75e8afa058c50a4a4.png

"MediaInfo"
Уникальный идентификатор : 227061504410126498167796576314297172327 (0xAAD2747E8E9C6E7C97049C4E0DA84167)
Полное имя : 22.minuty.2013.RUS.BDRip-AVC.x264.AC3.-HQCLUB.mkv
Формат : Matroska
Версия формата : Version 2
Размер файла : 1,87 Гбайт
Продолжительность : 1 ч. 22 м.
Общий поток : 3238 Кбит/сек
Дата кодирования : UTC 2014-06-15 16:41:23
Программа кодирования : mkvmerge v5.2.0 ('I can't explain') built on Dec 18 2011 18:12:03
Библиотека кодирования : libebml v1.2.3 + libmatroska v1.3.0

Видео
Идентификатор : 1
Формат : AVC
Формат/Информация : Advanced Video Codec
Профиль формата : High@L4.1
Параметр CABAC формата : Да
Параметр ReFrames формата : 8 кадров
Идентификатор кодека : V_MPEG4/ISO/AVC
Продолжительность : 1 ч. 22 м.
Битрейт : 2860 Кбит/сек
Ширина : 1024 пикселя
Высота : 432 пикселя
Соотношение сторон : 2,40:1
Режим частоты кадров : Постоянный
Частота кадров : 24,000 кадра/сек
Цветовое пространство : YUV
Субдискретизация насыщенности : 4:2:0
Битовая глубина : 8 бит
Тип развёртки : Прогрессивная
Бит/(Пиксели*Кадры) : 0.269
Размер потока : 1,61 Гбайт (86%)
Заголовок : 22 минуты (2014) BDRip-AVC by HQCLUB [Elheym]
Библиотека кодирования : x264 core 142 r2431 ac76440
Настройки программы : cabac=1 / ref=9 / deblock=1:-3:-2 / analyse=0x3:0x113 / me=tesa / subme=11 / psy=1 / psy_rd=1.00:0.00 / mixed_ref=1 / me_range=32 / chroma_me=1 / trellis=2 / 8x8dct=1 / cqm=0 / deadzone=21,11 / fast_pskip=1 / chroma_qp_offset=-4 / threads=6 / lookahead_threads=1 / sliced_threads=0 / nr=0 / decimate=1 / interlaced=0 / bluray_compat=0 / constrained_intra=0 / bframes=11 / b_pyramid=1 / b_adapt=2 / b_bias=0 / direct=3 / weightb=1 / open_gop=0 / weightp=2 / keyint=240 / keyint_min=24 / scenecut=40 / intra_refresh=0 / rc_lookahead=40 / rc=2pass / mbtree=1 / bitrate=2860 / ratetol=1.0 / qcomp=0.60 / qpmin=10 / qpmax=69 / qpstep=4 / cplxblur=20.0 / qblur=0.5 / vbv_maxrate=50000 / vbv_bufsize=62500 / nal_hrd=none / filler=0 / ip_ratio=1.40 / aq=1:1.00
Язык : Russian
Default : Да
Forced : Нет

Аудио
Идентификатор : 2
Формат : AC-3
Формат/Информация : Audio Coding 3
Расширение режима : CM (complete main)
Параметр Endianness формата : Big
Идентификатор кодека : A_AC3
Продолжительность : 1 ч. 22 м.
Вид битрейта : Постоянный
Битрейт : 384 Кбит/сек
Каналы : 6 каналов
Расположение каналов : Front: L C R, Side: L R, LFE
Частота : 48,0 КГц
Битовая глубина : 16 бит
Метод сжатия : С потерями
Размер потока : 227 Мбайт (12%)
Заголовок : АС3, 5.1 @ ~384 kbps - Original
Язык : Russian
Default : Нет
Forced : Нет

Меню
00:00:00.000 : :Chapter 01
00:00:04.000 : :Chapter 02
00:08:16.166 : :Chapter 03
00:19:07.791 : :Chapter 04
00:30:32.583 : :Chapter 05
00:39:31.166 : :Chapter 06
00:54:49.500 : :Chapter 07
01:01:45.375 : :Chapter 08
01:11:12.541 : :Chapter 09

"x264 log"
x264 [info]: frame I:1034 Avg QP:16.04 size: 66655
x264 [info]: frame P:33320 Avg QP:18.79 size: 25167
x264 [info]: frame B:84885 Avg QP:20.96 size: 10176

x264 [info]: consecutive B-frames: 5.0% 6.7% 18.3% 29.0% 17.9% 15.3% 4.4% 1.8% 1.0% 0.3% 0.2% 0.2%

x264 [info]: ref P L0: 59.9% 11.5% 13.5% 5.4% 3.5% 2.6% 2.0% 1.3% 0.2% 0.0%
x264 [info]: ref B L0: 84.4% 7.9% 3.6% 1.7% 1.2% 0.9% 0.4%
x264 [info]: ref B L1: 93.4% 6.6%


http//bt.hqclub.net/files/ok.png Торрент: 22 минуты (2013) BDRip-AVC

Лучшая онлайн игра!


Публикация материалов сайта на сторонних ресурсах возможна только в неизменном виде.


Обсудить релиз на форуме

Вас также может заинтересовать:


  • 4
 (Голосов: 4)


Распечатать новость на принтере Боевик, Отечественный
Обновлено: 17.06.2014 - 12:23

КОММЕНТАРИИ

 №1. ru4lan

Статус: Кинокритик | Новостей: 0 | Комментариев: 2736
ru4lan беру
~~~

23.06.2014 - 19:31   цитировать