Вас Приветствует Релиз-группа HQCLUB


Помощь ресурсу, очень ВАЖНО!!!



.


WELCOME
Добро пожаловать в наше интернет - сообщество!

Всех нас объединяет одна страсть - страсть к высококачественному кино. А это наш сайт. Ежедневно здесь мы публикуем десятки качественных, свежих, а порой и эксклюзивных релизов, которые Вы можете скачать совершенно бесплатно и без каких-либо регистраций. Посему рекомендуем Вам добавить HQClub себе в закладки, а также подписаться на нашу ленту новостей, чтобы всегда быть в курсе всех событий. Ну а если Вы такой же синий фил, как и мы, то милости просим на наш форум. И в заключение, попробуйте зарегистрироваться, ведь не так это и сложно и займет всего лишь пару минут! Вот увидите, Вам у нас понравится и Вы вольетесь в наш дружный коллектив! Ну а пока - осматривайтесь = )
Мы рады Вам !





Дежа вю / Deja Vu (2006) 720p BDRip

Оформил: DaniLch | 19 июля 2011 - 13:34:56 | Комментариев: 2 | Обращений: 2493 {bookmarks_news}

http//lostpic.net/images/69d7c6bfbe3f530868d3196be1a9c8.png

Название: Дежа вю
Оригинальное название: Deja Vu
Год выхода: 2006
Жанр: боевик, фантастика, триллер
Режиссер: Тони Скотт / Tony Scott
В ролях: Дензел Вашингтон, Пола Пэттон, Вэл Килмер, Джеймс Кэвизел, Адам Голдберг, Элден Хенсон, Эрика Александр, Брюс Гринвуд, Рич Хатчмэн, Мэтт Крэвен

О фильме: Каждый из нас хотя бы раз в жизни испытывал эффект дежа вю, когда нам вдруг начинает казаться, что мы знакомы с людьми, которых на самом деле раньше никогда не видели, и уже бывали в местах, где на самом деле никогда не были. И, возможно, в такие моменты кому-то приходила в голову мысль, что эти ощущения — не что иное, как предупреждения, посланные нам из прошлого, а может быть, и ключ к познанию будущего.

Агент АТФ Даг Карлин получает возможность совершать путешествия во времени, расследуя обстоятельства взрыва, произошедшего на новоорлеанском пароме. Оказавшись в прошлом, он встречает женщину, которую должны убить, и в итоге влюбляется в нее…

http//www.kinopoisk.ru/rating/102328.gif

Релиз от - http//hqclub.net/images/hqclub.png
Автор релиза: DaniLch

Выпущено: http//lostpic.net/images/ac5cb4a618da65239cf7be53b9ab78.gif США http//lostpic.net/images/9d9b54eb1fcd306b79f4368fc78a.gif Великобритания | Touchstone Pictures
Продолжительность: 02:06:26

Источник: BD-Remux 1080p by Voland_
Контейнер: MKV
Видео: 1280x534 (2.40:1), 23.976 fps, x264@L4.1, crf, ~6392 kbps
Аудио #1: Russian: 48 kHz, AC3 Dolby Digital, 3/2 (L,C,R,l,r) + LFE ch, ~640 kbps |Дубляж, Blu-ray CEE|
Аудио #2: Russian: 48 kHz/16-bit, DTS, 3/2 (L,C,R,l,r) + LFE ch, ~1536 kbps |Многоголосый закадровый, Киномания|
Аудио #3: Russian: 48 kHz/16-bit, DTS, 3/2 (L,C,R,l,r) + LFE ch, ~1536 kbps |Двухголосый закадровый, П.Гланц и И.Королёва|
Аудио #4: Russian: 48 kHz/16-bit, DTS, 3/2 (L,C,R,l,r) + LFE ch, ~1536 kbps |Одноголосый закадровый, А.Гаврилов|
Аудио #5: Russian: 48 kHz/16-bit, DTS, 3/2 (L,C,R,l,r) + LFE ch, ~1536 kbps |Одноголосый закадровый, С.Рябов|
Аудио #6: English: 48 kHz/16-bit, DTS, 3/2 (L,C,R,l,r) + LFE ch, ~1536 kbps
Субтитры: русские, английские
Размер: 13.1 Gb

http//lostpic.net/thumbs/e2523690b69753fb9a0a56a0dcda627c.png http//lostpic.net/thumbs/0700db4aaf1d39f60859da61affe38.png http//lostpic.net/thumbs/dc4b6046ae73c5541ee2ad1ea508b5.png http//lostpic.net/thumbs/3b0abda131dc692d8f002a15f25588c7.png

http//bt.hqclub.net/files/ok.png Торрент: Дежа вю / Deja Vu (2006) 720p BDRip

MediaInfo
General
Complete name : Dezha.vyu.2006.BDRip.720p.H264.AC3.DTS.-HQCLUB.mkv
Format : Matroska
File size : 13.2 GiB
Duration : 2h 6mn
Overall bit rate : 14.9 Mbps
Movie name : R.G. HQCLUB | Rip by DaniLch
Encoded date : UTC 2011-07-18 06:09:06
Writing application : mkvmerge v4.9.1 ('Ich will') built on Jul 11 2011 23:53:15
Writing library : libebml v1.2.1 + libmatroska v1.1.1

Video
ID : 1
Format : AVC
Format/Info : Advanced Video Codec
Format profile : High@L4.1
Format settings, CABAC : Yes
Format settings, ReFrames : 11 frames
Codec ID : V_MPEG4/ISO/AVC
Duration : 2h 6mn
Bit rate : 6 392 Kbps
Width : 1 280 pixels
Height : 534 pixels
Display aspect ratio : 2.35:1
Frame rate : 23.976 fps
Color space : YUV
Chroma subsampling : 4:2:0
Bit depth : 8 bits
Scan type : Progressive
Bits/(Pixel*Frame) : 0.390
Stream size : 5.66 GiB (43%)
Title : Дежа вю / Deja Vu (2006) 720p BDRip
Writing library : x264 core 115 r1995 c1e60b9
Encoding settings : cabac=1 / ref=11 / deblock=1:-3:-3 / analyse=0x3:0x113 / me=umh / subme=10 / psy=1 / psy_rd=1.05:0.00 / mixed_ref=1 / me_range=32 / chroma_me=1 / trellis=2 / 8x8dct=1 / cqm=0 / deadzone=21,11 / fast_pskip=0 / chroma_qp_offset=1 / threads=6 / sliced_threads=0 / nr=0 / decimate=1 / interlaced=0 / bluray_compat=0 / constrained_intra=0 / bframes=8 / b_pyramid=2 / b_adapt=2 / b_bias=0 / direct=3 / weightb=1 / open_gop=0 / weightp=2 / keyint=250 / keyint_min=23 / scenecut=40 / intra_refresh=0 / rc_lookahead=40 / rc=crf / mbtree=0 / crf=16.8 / qcomp=0.60 / qpmin=10 / qpmax=51 / qpstep=4 / vbv_maxrate=50000 / vbv_bufsize=62500 / crf_max=0.0 / nal_hrd=none / ip_ratio=1.40 / pb_ratio=1.30 / aq=1:0.80
Language : English

Audio #1
ID : 2
Format : AC-3
Format/Info : Audio Coding 3
Mode extension : CM (complete main)
Codec ID : A_AC3
Duration : 2h 6mn
Bit rate mode : Constant
Bit rate : 640 Kbps
Channel(s) : 6 channels
Channel positions : Front: L C R, Side: L R, LFE
Sampling rate : 48.0 KHz
Bit depth : 16 bits
Compression mode : Lossy
Stream size : 580 MiB (4%)
Title : AC3 5.1 @ 640 kbps - Дубляж
Language : Russian

Audio #2
ID : 3
Format : DTS
Format/Info : Digital Theater Systems
Codec ID : A_DTS
Duration : 2h 6mn
Bit rate mode : Constant
Bit rate : 1 510 Kbps
Channel(s) : 6 channels
Channel positions : Front: L C R, Side: L R, LFE
Sampling rate : 48.0 KHz
Bit depth : 24 bits
Compression mode : Lossy
Stream size : 1.34 GiB (10%)
Title : DTS 5.1 @ 1536 kbps - Многоголосый закадровый, Киномания
Language : Russian

Audio #3
ID : 4
Format : DTS
Format/Info : Digital Theater Systems
Codec ID : A_DTS
Duration : 2h 6mn
Bit rate mode : Constant
Bit rate : 1 510 Kbps
Channel(s) : 6 channels
Channel positions : Front: L C R, Side: L R, LFE
Sampling rate : 48.0 KHz
Bit depth : 16 bits
Compression mode : Lossy
Stream size : 1.34 GiB (10%)
Title : DTS 5.1 @ 1536 kbps - Двухголосый закадровый, П.Гланц и И.Королёва
Language : Russian

Audio #4
ID : 5
Format : DTS
Format/Info : Digital Theater Systems
Codec ID : A_DTS
Duration : 2h 6mn
Bit rate mode : Constant
Bit rate : 1 510 Kbps
Channel(s) : 6 channels
Channel positions : Front: L C R, Side: L R, LFE
Sampling rate : 48.0 KHz
Bit depth : 16 bits
Compression mode : Lossy
Stream size : 1.34 GiB (10%)
Title : DTS 5.1 @ 1536 kbps - Одноголосый закадровый, А.Гаврилов
Language : Russian

Audio #5
ID : 6
Format : DTS
Format/Info : Digital Theater Systems
Codec ID : A_DTS
Duration : 2h 6mn
Bit rate mode : Constant
Bit rate : 1 510 Kbps
Channel(s) : 6 channels
Channel positions : Front: L C R, Side: L R, LFE
Sampling rate : 48.0 KHz
Bit depth : 16 bits
Compression mode : Lossy
Stream size : 1.34 GiB (10%)
Title : DTS 5.1 @ 1536 kbps - Одноголосый закадровый, С.Рябов
Language : Russian

Audio #6
ID : 7
Format : DTS
Format/Info : Digital Theater Systems
Codec ID : A_DTS
Duration : 2h 6mn
Bit rate mode : Constant
Bit rate : 1 510 Kbps
Channel(s) : 6 channels
Channel positions : Front: L C R, Side: L R, LFE
Sampling rate : 48.0 KHz
Bit depth : 16 bits
Compression mode : Lossy
Stream size : 1.34 GiB (10%)
Title : DTS 5.1 @ 1536 kbps
Language : English

Text #1
ID : 8
Format : UTF-8
Codec ID : S_TEXT/UTF8
Codec ID/Info : UTF-8 Plain Text
Language : Russian

Text #2
ID : 9
Format : UTF-8
Codec ID : S_TEXT/UTF8
Codec ID/Info : UTF-8 Plain Text
Language : English


Лучшая онлайн игра!


Публикация материалов сайта на сторонних ресурсах возможна только в неизменном виде.


Обсудить релиз на форуме

Вас также может заинтересовать:


  • 5
 (Голосов: 12)


Распечатать новость на принтере Боевик, Фантастика, Триллер
Обновлено: 19.07.2011 - 13:37

КОММЕНТАРИИ

 №1. Shokwel

Статус: Любитель | Новостей: 0 | Комментариев: 124
Shokwel классный фильм даже мама понрав))
~~~

2.10.2011 - 22:26   цитировать  

 №2. Shokwel

Статус: Любитель | Новостей: 0 | Комментариев: 124
Shokwel тип молоток спас всех
~~~

2.10.2011 - 22:27   цитировать