Вас Приветствует Релиз-группа HQCLUB


Помощь ресурсу, очень ВАЖНО!!!



.


WELCOME
Добро пожаловать в наше интернет - сообщество!

Всех нас объединяет одна страсть - страсть к высококачественному кино. А это наш сайт. Ежедневно здесь мы публикуем десятки качественных, свежих, а порой и эксклюзивных релизов, которые Вы можете скачать совершенно бесплатно и без каких-либо регистраций. Посему рекомендуем Вам добавить HQClub себе в закладки, а также подписаться на нашу ленту новостей, чтобы всегда быть в курсе всех событий. Ну а если Вы такой же синий фил, как и мы, то милости просим на наш форум. И в заключение, попробуйте зарегистрироваться, ведь не так это и сложно и займет всего лишь пару минут! Вот увидите, Вам у нас понравится и Вы вольетесь в наш дружный коллектив! Ну а пока - осматривайтесь = )
Мы рады Вам !





Миссия невыполнима: Племя изгоев / Mission: Impossible - Rogue Nation (2015) BDRip-AVC

Оформил: Rensler | 21 ноября 2015 - 15:26:22 | Комментариев: 5 | Обращений: 935 {bookmarks_news}

http//img10.lostpic.net/2015/11/15/0cfaca05b1ba41ab7297b77f181aef.png


Информация о фильме
Название: Миссия невыполнима: Племя изгоев
Оригинальное название: Mission: Impossible - Rogue Nation
Год выхода: 2015
Жанр: Боевик, Триллер, Приключения
Режиссёр: Кристофер МакКуорри / Christopher McQuarrie
В ролях: Том Круз (Ethan Hunt), Ребекка Фергюсон (Ilsa Faust), Саймон Пегг (Benji Dunn), Джереми Реннер (William Brandt), Винг Реймз (Luther Stickell), Шон Харрис (Solomon Lane), Алек Болдуин (Alan Hunley), Саймон МакБерни (Atlee), Йенс Хультен (Janik Vinter), Том Холландер (Prime Minister), Чжан Цзинчу (Lauren)

О фильме: Правительство решает расформировать самый подготовленный и боеспособный отряд, предназначенный для выполнения миссий любой сложности и секретности - команду Итана "Миссия невыполнима". Однако в тоже время самому Итану удается обнаружить неизвестный и таинственный синдикат, о котором только ходили слухи. Как оказалось этот синдикат состоит из изгоев и таких же специалистов высокого класса, как и сама группа Итана. Поэтому наш герой собирается совершить последнюю миссию вместе со своей группой по ликвидации этого таинственного синдиката. В противном случае синдикат уничтожит Международный Валютный Фонд и мир погрузится в экономический хаос.

«Go rogue»



User Rating: 7.2/10 (39 062votes)
IMDB: 7.6/10 (149 310 votes)

Релиз от - http//hqclub.net/images/hqclub.png
Автор рипа: Rensler

Выпущено: США | Гонконг | Китай
Студия: Alibaba Pictures Group, Bad Robot, China Movie Channel, Odin, Paramount Pictures, Skydance Productions, TC Productions
Продолжительность: 02:11:33
Перевод:
• Профессиональный (полное дублирование) BD CEE
Оригинальная аудиодорожка: Английская
Субтитры: Русские (форсированные (на места с другим наречием), полные), Английские (форсированные, полные, SDH)
Главы: Сохранены чаптеры с оригинального Blu-ray Disc

Файл:
Формат: MKV
Качество: BDRip 720p (источник: BLUEBIRD / Blu-ray Disc / 1080p)
Видео: 1046x438 (2,40:1) at 23.976, x264@L4.1 ~ 3864 kbps avg, 0.352 bit/pixel
Аудио#1: 48 kHz/16-bit, AC3 Dolby Digital, 3/2 (L,C,R,l,r) + LFE ch, ~ 448 kbps avg | RUS
Аудио#2: 48 kHz/16-bit, AC3 Dolby Digital, 3/2 (L,C,R,l,r) + LFE ch, ~ 448 kbps avg | ENG
Размер: 4,37 GB
Скачать: Семпл
"MI@logx.264"
logx.264 написал:

x264 [info]: frame I:1946 Avg QP:15.91 size: 76065
x264 [info]: frame P:40082 Avg QP:17.95 size: 31202
x264 [info]: frame B:147233 Avg QP:18.73 size: 16390
x264 [info]: consecutive B-frames: 3.2% 2.4% 6.9% 14.7% 15.6% 40.6% 5.9% 2.2% 2.3% 3.1% 1.5% 0.8% 0.6%
x264 [info]: ref P L0: 49.8% 8.3% 16.6% 8.5% 6.2% 4.7% 3.6% 2.1% 0.3% 0.0%

MediaInfo написал:
Уникальный идентификатор : 202359246039537385724859694143704541573 (0x983CF9202B615FCEA27F7E6B996E2985)
Полное имя : Mission.Impossible.Rogue.Nation.2015.BDRip-AVC.Rus.Eng.-HQCLUB.mkv
Формат : Matroska
Версия формата : Version 4 / Version 2
Размер файла : 4,38 Гбайт
Продолжительность : 2 ч. 11 м.
Общий поток : 4762 Кбит/сек
Название фильма : Миссия невыполнима: Племя изгоев / Mission: Impossible - Rogue Nation (2015) BDRip-AVC
Дата кодирования : UTC 2010-02-22 21:41:31
Программа кодирования : mkvmerge v5.8.0 ('No Sleep / Pillow') built on Sep 30 2012 10:57:14
Библиотека кодирования : libebml v1.3.0 + libmatroska v1.4.0
Attachements : Cover.png

Видео
Идентификатор : 1
Формат : AVC
Формат/Информация : Advanced Video Codec
Профиль формата : High@L4.1
Параметр CABAC формата : Да
Параметр ReFrames формата : 8 кадров
Идентификатор кодека : V_MPEG4/ISO/AVC
Продолжительность : 2 ч. 11 м.
Битрейт : 3864 Кбит/сек
Ширина : 1046 пикселей
Высота : 438 пикселей
Соотношение сторон : 2,40:1
Режим частоты кадров : Постоянный
Частота кадров : 23,976 кадра/сек
Цветовое пространство : YUV
Субдискретизация насыщенности : 4:2:0
Битовая глубина : 8 бит
Тип развёртки : Прогрессивная
Бит/(Пиксели*Кадры) : 0.352
Размер потока : 3,47 Гбайт (79%)
Заголовок : Release by Rensler
Библиотека кодирования : x264 core 148 r2638 7599210
Настройки программы : cabac=1 / ref=8 / deblock=1:-3:-3 / analyse=0x3:0x113 / me=umh / subme=10 / psy=1 / psy_rd=1.04:0.04 / mixed_ref=1 / me_range=32 / chroma_me=1 / trellis=2 / 8x8dct=1 / cqm=0 / deadzone=21,11 / fast_pskip=0 / chroma_qp_offset=-3 / threads=3 / lookahead_threads=1 / sliced_threads=0 / nr=0 / decimate=0 / interlaced=0 / bluray_compat=0 / constrained_intra=0 / bframes=12 / b_pyramid=2 / b_adapt=2 / b_bias=0 / direct=3 / weightb=1 / open_gop=0 / weightp=2 / keyint=230 / keyint_min=23 / scenecut=40 / intra_refresh=0 / rc_lookahead=60 / rc=2pass / mbtree=0 / bitrate=3864 / ratetol=1.0 / qcomp=0.60 / qpmin=0 / qpmax=69 / qpstep=4 / cplxblur=20.0 / qblur=0.5 / vbv_maxrate=50000 / vbv_bufsize=62500 / nal_hrd=none / filler=0 / ip_ratio=1.20 / pb_ratio=1.15 / aq=2:0.85
Язык : English
Default : Да
Forced : Нет

Аудио #1
Идентификатор : 2
Формат : AC-3
Формат/Информация : Audio Coding 3
Расширение режима : CM (complete main)
Параметр Endianness формата : Big
Идентификатор кодека : A_AC3
Продолжительность : 2 ч. 11 м.
Вид битрейта : Постоянный
Битрейт : 448 Кбит/сек
Каналы : 6 каналов
Расположение каналов : Front: L C R, Side: L R, LFE
Частота : 48,0 КГц
Битовая глубина : 16 бит
Метод сжатия : С потерями
Размер потока : 422 Мбайт (9%)
Заголовок : Русский BD
Язык : Russian
Default : Да
Forced : Нет

Аудио #2
Идентификатор : 3
Формат : AC-3
Формат/Информация : Audio Coding 3
Расширение режима : CM (complete main)
Параметр Endianness формата : Big
Идентификатор кодека : A_AC3
Продолжительность : 2 ч. 11 м.
Вид битрейта : Постоянный
Битрейт : 448 Кбит/сек
Каналы : 6 каналов
Расположение каналов : Front: L C R, Side: L R, LFE
Частота : 48,0 КГц
Битовая глубина : 16 бит
Метод сжатия : С потерями
Размер потока : 422 Мбайт (9%)
Заголовок : Английский BD
Default : Нет
Forced : Нет

Текст #1
Идентификатор : 4
Формат : UTF-8
Идентификатор кодека : S_TEXT/UTF8
Идентификатор кодека/Информация : UTF-8 Plain Text
Заголовок : Форсированные
Язык : Russian
Default : Да
Forced : Нет

Текст #2
Идентификатор : 5
Формат : UTF-8
Идентификатор кодека : S_TEXT/UTF8
Идентификатор кодека/Информация : UTF-8 Plain Text
Заголовок : Полные
Язык : Russian
Default : Нет
Forced : Нет

Текст #3
Идентификатор : 6
Формат : UTF-8
Идентификатор кодека : S_TEXT/UTF8
Идентификатор кодека/Информация : UTF-8 Plain Text
Заголовок : Форсированные
Язык : English
Default : Нет
Forced : Нет

Текст #4
Идентификатор : 7
Формат : UTF-8
Идентификатор кодека : S_TEXT/UTF8
Идентификатор кодека/Информация : UTF-8 Plain Text
Заголовок : Полные
Язык : English
Default : Нет
Forced : Нет

Текст #5
Идентификатор : 8
Формат : UTF-8
Идентификатор кодека : S_TEXT/UTF8
Идентификатор кодека/Информация : UTF-8 Plain Text
Заголовок : SDH
Язык : English
Default : Нет
Forced : Нет

Меню
00:00:00.000 : en:Chapter 01
00:09:53.092 : en:Chapter 02
00:20:45.703 : en:Chapter 03
00:25:32.072 : en:Chapter 04
00:32:00.669 : en:Chapter 05
00:40:03.443 : en:Chapter 06
00:49:35.556 : en:Chapter 07
01:01:01.157 : en:Chapter 08
01:09:51.687 : en:Chapter 09
01:20:20.858 : en:Chapter 10
01:29:29.322 : en:Chapter 11
01:38:32.824 : en:Chapter 12
01:48:19.410 : en:Chapter 13
01:57:13.944 : en:Chapter 14
02:03:02.709 : en:Chapter 15


http//img10.lostpic.net/2015/11/15/6ae58b943a7f5f101099df04390b.th.png http//img10.lostpic.net/2015/11/15/63ceccbf544f4ebbc71a2af89307343e.th.png http//img10.lostpic.net/2015/11/15/604a2e074a5f1f56244a05a90a0cee6a.th.png http//img10.lostpic.net/2015/11/15/c2d2812dcfd70f088db1cb2d9b62055f.th.png
http//img10.lostpic.net/2015/11/15/bf479e83998d80ff710e39c85224ac.th.png http//img10.lostpic.net/2015/11/15/bef0981403df69d98228cabc4f11b1.th.png http//img10.lostpic.net/2015/11/15/3bbb253c669f02189730c9b6a737ef.th.png http//img10.lostpic.net/2015/11/15/70c7c5a3b8a965275e3d653053b467.th.png

Ссылки для скачивания:

http//bt.hqclub.net/files/ok.png Торрент: Миссия невыполнима: Племя изгоев / Mission: Impossible - Rogue Nation (2015) BDRip-AVC

Лучшая онлайн игра!


Публикация материалов сайта на сторонних ресурсах возможна только в неизменном виде.


Обсудить релиз на форуме

Вас также может заинтересовать:


  • 4
 (Голосов: 6)


Распечатать новость на принтере Боевик, Триллер, Приключения
Обновлено: 23.11.2015 - 13:11

КОММЕНТАРИИ

 №1. zeffc63

Статус: Кинокритик | Новостей: 0 | Комментариев: 1096
zeffc63 А куда нажимать???
~~~

21.11.2015 - 23:00   цитировать  

 №2. xxL

Статус: Завсегдатай | Новостей: 184 | Комментариев: 221
xxL zeffc63, исправлено, спасибо. Можете качать!
~~~

22.11.2015 - 01:11   цитировать  

 №3. zeffc63

Статус: Кинокритик | Новостей: 0 | Комментариев: 1096
zeffc63 Rensler Спасибо! Посмотрим..
~~~

23.11.2015 - 00:31   цитировать  

 №4. zeffc63

Статус: Кинокритик | Новостей: 0 | Комментариев: 1096
zeffc63 xxL Спасибо!
~~~

23.11.2015 - 00:32   цитировать  

 №5. Rensler

Статус: Новичок | Новостей: 22 | Комментариев: 10
Rensler zeffc63 Пожалуйста!
~~~

23.11.2015 - 20:19   цитировать