Вас Приветствует Релиз-группа HQCLUB


Помощь ресурсу, очень ВАЖНО!!!



.


WELCOME
Добро пожаловать в наше интернет - сообщество!

Всех нас объединяет одна страсть - страсть к высококачественному кино. А это наш сайт. Ежедневно здесь мы публикуем десятки качественных, свежих, а порой и эксклюзивных релизов, которые Вы можете скачать совершенно бесплатно и без каких-либо регистраций. Посему рекомендуем Вам добавить HQClub себе в закладки, а также подписаться на нашу ленту новостей, чтобы всегда быть в курсе всех событий. Ну а если Вы такой же синий фил, как и мы, то милости просим на наш форум. И в заключение, попробуйте зарегистрироваться, ведь не так это и сложно и займет всего лишь пару минут! Вот увидите, Вам у нас понравится и Вы вольетесь в наш дружный коллектив! Ну а пока - осматривайтесь = )
Мы рады Вам !





Миссия невыполнима: Племя изгоев / Mission: Impossible - Rogue Nation (2015) BDRip 720p

Оформил: Rensler | 21 ноября 2015 - 16:31:41 | Обращений: 758 {bookmarks_news}

http//img10.lostpic.net/2015/11/15/0cfaca05b1ba41ab7297b77f181aef.png



Информация о фильме
Название: Миссия невыполнима: Племя изгоев
Оригинальное название: Mission: Impossible - Rogue Nation
Год выхода: 2015
Жанр: Боевик, Триллер, Приключения
Режиссёр: Кристофер МакКуорри / Christopher McQuarrie
В ролях: Том Круз (Ethan Hunt), Ребекка Фергюсон (Ilsa Faust), Саймон Пегг (Benji Dunn), Джереми Реннер (William Brandt), Винг Реймз (Luther Stickell), Шон Харрис (Solomon Lane), Алек Болдуин (Alan Hunley), Саймон МакБерни (Atlee), Йенс Хультен (Janik Vinter), Том Холландер (Prime Minister), Чжан Цзинчу (Lauren)

О фильме: Правительство решает расформировать самый подготовленный и боеспособный отряд, предназначенный для выполнения миссий любой сложности и секретности - команду Итана "Миссия невыполнима". Однако в тоже время самому Итану удается обнаружить неизвестный и таинственный синдикат, о котором только ходили слухи. Как оказалось этот синдикат состоит из изгоев и таких же специалистов высокого класса, как и сама группа Итана. Поэтому наш герой собирается совершить последнюю миссию вместе со своей группой по ликвидации этого таинственного синдиката. В противном случае синдикат уничтожит Международный Валютный Фонд и мир погрузится в экономический хаос.

«Go rogue»



User Rating: 7.2/10 (39 062votes)
IMDB: 7.6/10 (149 310 votes)

Релиз от - http//hqclub.net/images/hqclub.png
Автор рипа: Rensler

Выпущено: США | Гонконг | Китай
Студия: Alibaba Pictures Group, Bad Robot, China Movie Channel, Odin, Paramount Pictures, Skydance Productions, TC Productions
Продолжительность: 02:11:33
Перевод:
• Профессиональный (полное дублирование) BD CEE
Оригинальная аудиодорожка: Английская
Субтитры: Русские (форсированные (на места с другим наречием), полные), Английские (форсированные, полные, SDH)
Главы: Сохранены чаптеры с оригинального Blu-ray Disc

Файл:
Формат: MKV
Качество: BDRip 720p (источник: BLUEBIRD / Blu-ray Disc / 1080p)
Видео: 1280x536 (2,40:1) at 23.976, x264@L4.1 ~ 7169 kbps avg, 0.436 bit/pixel
Аудио#1: 48 kHz/16-bit, AC3 Dolby Digital, 3/2 (L,C,R,l,r) + LFE ch, ~ 640 kbps avg | RUS
Аудио#2: 48 kHz/16-bit, AC3 Dolby Digital, 3/2 (L,C,R,l,r) + LFE ch, ~ 640 kbps avg | ENG
Размер: 7,76 GB
Скачать: Семпл
"MI@logx.264"
logx.264
x264 [info написал:

: frame I:1880 Avg QP:16.79 size:116568
x264 [info]: frame P:39099 Avg QP:17.30 size: 53367
x264 [info]: frame B:148282 Avg QP:18.37 size: 32123
x264 [info]: consecutive B-frames: 2.5% 2.7% 7.4% 12.4% 14.3% 44.7% 5.8% 1.6% 1.5% 4.3% 1.7% 0.6%
x264 [info]: ref P L0: 49.5% 5.8% 16.8% 8.4% 6.1% 4.5% 3.6% 2.1% 1.7% 1.3% 0.2% 0.0%

MediaInfo написал:
Уникальный идентификатор : 237739730783490580277875014122773371403 (0xB2DB01B3B9CFA0D3B25F082E2D0F5A0B)
Полное имя : Mission.Impossible.Rogue.Nation.2015.BluRay.720.Rus.Eng.-HQCLUB.mkv
Формат : Matroska
Версия формата : Version 4 / Version 2
Размер файла : 7,76 Гбайт
Продолжительность : 2 ч. 11 м.
Общий поток : 8447 Кбит/сек
Название фильма : Миссия невыполнима: Племя изгоев / Mission: Impossible - Rogue Nation (2015) BDRip 720p
Дата кодирования : UTC 2010-02-22 21:41:31
Программа кодирования : mkvmerge v5.8.0 ('No Sleep / Pillow') built on Sep 30 2012 10:57:14
Библиотека кодирования : libebml v1.3.0 + libmatroska v1.4.0
Attachements : Cover.png

Видео
Идентификатор : 1
Формат : AVC
Формат/Информация : Advanced Video Codec
Профиль формата : High@L4.1
Параметр CABAC формата : Да
Параметр ReFrames формата : 10 кадров
Идентификатор кодека : V_MPEG4/ISO/AVC
Продолжительность : 2 ч. 11 м.
Битрейт : 7169 Кбит/сек
Ширина : 1280 пикселей
Высота : 536 пикселей
Соотношение сторон : 2,40:1
Режим частоты кадров : Постоянный
Частота кадров : 23,976 кадра/сек
Цветовое пространство : YUV
Субдискретизация насыщенности : 4:2:0
Битовая глубина : 8 бит
Тип развёртки : Прогрессивная
Бит/(Пиксели*Кадры) : 0.436
Размер потока : 6,43 Гбайт (83%)
Заголовок : Release by Rensler
Библиотека кодирования : x264 core 148 r2638 7599210
Настройки программы : cabac=1 / ref=10 / deblock=1:-3:-3 / analyse=0x3:0x113 / me=tesa / subme=10 / psy=1 / psy_rd=1.02:0.04 / mixed_ref=1 / me_range=32 / chroma_me=1 / trellis=2 / 8x8dct=1 / cqm=0 / deadzone=21,11 / fast_pskip=0 / chroma_qp_offset=-3 / threads=3 / lookahead_threads=1 / sliced_threads=0 / nr=0 / decimate=0 / interlaced=0 / bluray_compat=0 / constrained_intra=0 / bframes=11 / b_pyramid=2 / b_adapt=2 / b_bias=0 / direct=3 / weightb=1 / open_gop=0 / weightp=2 / keyint=230 / keyint_min=23 / scenecut=40 / intra_refresh=0 / rc_lookahead=60 / rc=2pass / mbtree=0 / bitrate=7169 / ratetol=1.0 / qcomp=0.60 / qpmin=0 / qpmax=69 / qpstep=4 / cplxblur=20.0 / qblur=0.5 / vbv_maxrate=50000 / vbv_bufsize=62500 / nal_hrd=none / filler=0 / ip_ratio=1.20 / pb_ratio=1.15 / aq=2:0.85
Язык : English
Default : Да
Forced : Нет

Аудио #1
Идентификатор : 2
Формат : AC-3
Формат/Информация : Audio Coding 3
Расширение режима : CM (complete main)
Параметр Endianness формата : Big
Идентификатор кодека : A_AC3
Продолжительность : 2 ч. 11 м.
Вид битрейта : Постоянный
Битрейт : 640 Кбит/сек
Каналы : 6 каналов
Расположение каналов : Front: L C R, Side: L R, LFE
Частота : 48,0 КГц
Битовая глубина : 16 бит
Метод сжатия : С потерями
Размер потока : 602 Мбайт (8%)
Заголовок : Русский BD
Язык : Russian
Default : Да
Forced : Нет

Аудио #2
Идентификатор : 3
Формат : AC-3
Формат/Информация : Audio Coding 3
Расширение режима : CM (complete main)
Параметр Endianness формата : Big
Идентификатор кодека : A_AC3
Продолжительность : 2 ч. 11 м.
Вид битрейта : Постоянный
Битрейт : 640 Кбит/сек
Каналы : 6 каналов
Расположение каналов : Front: L C R, Side: L R, LFE
Частота : 48,0 КГц
Битовая глубина : 16 бит
Метод сжатия : С потерями
Размер потока : 602 Мбайт (8%)
Заголовок : Английский BD
Язык : English
Default : Нет
Forced : Нет

Текст #1
Идентификатор : 4
Формат : UTF-8
Идентификатор кодека : S_TEXT/UTF8
Идентификатор кодека/Информация : UTF-8 Plain Text
Заголовок : Форсированные
Язык : Russian
Default : Да
Forced : Нет

Текст #2
Идентификатор : 5
Формат : UTF-8
Идентификатор кодека : S_TEXT/UTF8
Идентификатор кодека/Информация : UTF-8 Plain Text
Заголовок : Полные
Язык : Russian
Default : Нет
Forced : Нет

Текст #3
Идентификатор : 6
Формат : UTF-8
Идентификатор кодека : S_TEXT/UTF8
Идентификатор кодека/Информация : UTF-8 Plain Text
Заголовок : Форсированные
Язык : English
Default : Нет
Forced : Нет

Текст #4
Идентификатор : 7
Формат : UTF-8
Идентификатор кодека : S_TEXT/UTF8
Идентификатор кодека/Информация : UTF-8 Plain Text
Заголовок : Полные
Язык : English
Default : Нет
Forced : Нет

Текст #5
Идентификатор : 8
Формат : UTF-8
Идентификатор кодека : S_TEXT/UTF8
Идентификатор кодека/Информация : UTF-8 Plain Text
Заголовок : SDH
Язык : English
Default : Нет
Forced : Нет

Меню
00:00:00.000 : en:Chapter 01
00:09:53.092 : en:Chapter 02
00:20:45.703 : en:Chapter 03
00:25:32.072 : en:Chapter 04
00:32:00.669 : en:Chapter 05
00:40:03.443 : en:Chapter 06
00:49:35.556 : en:Chapter 07
01:01:01.157 : en:Chapter 08
01:09:51.687 : en:Chapter 09
01:20:20.858 : en:Chapter 10
01:29:29.322 : en:Chapter 11
01:38:32.824 : en:Chapter 12
01:48:19.410 : en:Chapter 13
01:57:13.944 : en:Chapter 14
02:03:02.709 : en:Chapter 15


http//img10.lostpic.net/2015/11/21/395e987f314ddc8bbf3c4ab9e411c76a.th.png http//img10.lostpic.net/2015/11/21/d454a3e39acf2f9efd32bb69376069f6.th.png http//img10.lostpic.net/2015/11/21/d8dcc9dddc2ec638f27adf33a3676d.th.png http//img10.lostpic.net/2015/11/21/a89c2d241966d4a77d2bf377c917ced2.th.png
http//img10.lostpic.net/2015/11/21/ff6d4300d5c27a1d7a190e18b233af3e.th.png http//img10.lostpic.net/2015/11/21/5a134176f8765043d5d38722c5ca6afa.th.png http//img10.lostpic.net/2015/11/21/fb835e3ee9dff6940837d409533be612.th.png http//img10.lostpic.net/2015/11/21/55530003f46a56ce7cc59daf9b5a61d0.th.png

Ссылки для скачивания:

http//bt.hqclub.net/files/ok.png Торрент: Миссия невыполнима: Племя изгоев / Mission: Impossible - Rogue Nation (2015) BDRip 720p

Лучшая онлайн игра!


Публикация материалов сайта на сторонних ресурсах возможна только в неизменном виде.


Обсудить релиз на форуме

Вас также может заинтересовать:


  • 4
 (Голосов: 6)


Распечатать новость на принтере Боевик, Триллер, Приключения
Обновлено: 22.11.2015 - 01:12