Вас Приветствует Релиз-группа HQCLUB


Помощь ресурсу, очень ВАЖНО!!!



.


WELCOME
Добро пожаловать в наше интернет - сообщество!

Всех нас объединяет одна страсть - страсть к высококачественному кино. А это наш сайт. Ежедневно здесь мы публикуем десятки качественных, свежих, а порой и эксклюзивных релизов, которые Вы можете скачать совершенно бесплатно и без каких-либо регистраций. Посему рекомендуем Вам добавить HQClub себе в закладки, а также подписаться на нашу ленту новостей, чтобы всегда быть в курсе всех событий. Ну а если Вы такой же синий фил, как и мы, то милости просим на наш форум. И в заключение, попробуйте зарегистрироваться, ведь не так это и сложно и займет всего лишь пару минут! Вот увидите, Вам у нас понравится и Вы вольетесь в наш дружный коллектив! Ну а пока - осматривайтесь = )
Мы рады Вам !





Неудержимые 2 / The Expendables 2 [US Transfer] (2012) BDRip-AVC

Оформил: Sky™ | 12 ноября 2012 - 07:15:15 | Комментариев: 5 | Обращений: 2075 {bookmarks_news}

http//lostpic.net/images/29ff2b2d3b7238e74ac581e6ae58.png

Информация о фильме:
Название: Неудержимые 2
Оригинальное название: The Expendables 2
Год выхода: 2012
Жанр: боевик, триллер, приключения
Режиссер: Саймон Уэст
В ролях: Сильвестр Сталлоне, Джейсон Стэйтем, Дольф Лундгрен, Жан-Клод Ван Дамм, Терри Крюс, Рэнди Кутюр, Лиам Хемсворт, Юй Нань, Брюс Уиллис, Арнольд Шварценеггер, Чак Норрис, Джет Ли

О фильме: Можно ли попробовать изменить расстановку сил в мире? Да, если вы круты как Ван Дамм, у вас есть пять тонн плутония и первоклассные наемники. Стоит ли шутить с Уиллисом, когда вы ему серьезно задолжали? Нет, даже если вы опасны как Сталлоне и у вас за спиной Неудержимые.

Кого позвать на такое плевое дельце, как спасение мира? Пара проверенных ребят, Стэйтем и Норрис, явно не помешают. Пригодятся и малыш Хемсворт, и опасная красотка. Но команда будет неполной без Шварценеггера. Он реально вернулся! Все в сборе. Понеслась…

«Они вернулись, чтобы зажечь»



http//www.kinopoisk.ru/rating/1288.gif

Релиз от - http//hqclub.net/images/hqclub.png
Автор рипа: Sky™

Выпущено: США (Millennium Films, Nu-Image Films)
Продолжительность: 01:42:41
Перевод: Профессиональный (полное дублирование) BD RUS + Оригинальная звуковая дорожка
Субтитры: Английские (SDH) [/url](*.srt, отключаемые)
Сохранены оригинальные чаптеры как на Blu-ray.

Файл:
Формат: mkv
Качество: BDRip-AVC (источник: http//lostpic.net/images/22eefe6b76ddac5300f588214ee6f381.gif / Blu-Ray Remux / 1080p)
Видео: 1036x432 (2.40:1), 23.976 fps, X264@L4.1 ~3143 kbps avg, 0.293 bit/pixel
Аудио #1: 48 kHz, AC3 Dolby Digital, 3/2 (L,C,R,l,r) + LFE ch, ~448kbps avg (RUS) BD RUS
Аудио #2: 48 kHz, AC3 Dolby Digital, 3/2 (L,C,R,l,r) + LFE ch, ~448kbps avg (ENG)
Размер: 2964.46 Mb
http//lostpic.net/images/1b899dddff9c84e7020a856612f5c646.png

http//lostpic.net/thumbs/2161e1cd3c74f8bc53351c43dcddfd91.png http//lostpic.net/thumbs/ef3c1f94b08b947e7b89c5593c65.png http//lostpic.net/thumbs/ca2e9c25cb06080c2c2865dd243f.png http//lostpic.net/thumbs/e5d810eecf4c7a4b361af7fd521810.png http//lostpic.net/thumbs/ee9ff7eb638edc911182c79b4fd67f75.png

MediaINFO
[HTML]Полное имя : E:\FILMA\Неудержимые 2\Neuderzhimye.2.US.2012.BDRip-AVC.H264.AC3.-HQCLUB.mkv
Формат : Matroska
Версия формата : Version 2
Размер файла : 2,89 Гбайт
Продолжительность : 1 ч. 42 м.
Общий поток : 4036 Кбит/сек
Дата кодирования : UTC 2012-11-11 04:34:42
Программа кодирования : mkvmerge v5.7.0 ('The Whirlwind') built on Jul 8 2012 20:08:51
Библиотека кодирования : libebml v1.2.3 + libmatroska v1.3.0

Видео
Идентификатор : 1
Формат : AVC
Формат/Информация : Advanced Video Codec
Профиль формата : High@L4.1
Параметр CABAC формата : Да
Параметр ReFrames формата : 9 кадров
Идентификатор кодека : V_MPEG4/ISO/AVC
Продолжительность : 1 ч. 42 м.
Битрейт : 3143 Кбит/сек
Ширина : 1036 пикселей
Высота : 432 пикселя
Соотношение сторон : 2,40:1
Режим частоты кадров : Постоянный
Частота кадров : 23,976 кадра/сек
Цветовое пространство : YUV
Субдискретизация насыщенности : 4:2:0
Битовая глубина : 8 бит
Тип развёртки : Прогрессивная
Бит/(Пиксели*Кадры) : 0.293
Размер потока : 2,19 Гбайт (76%)
Заголовок : Неудержимые 2 / The Expendables 2 [US Transfer] (2012) BDRip
Библиотека кодирования : x264 core 120 r2146 bcd41db
Настройки программы : cabac=1 / ref=9 / deblock=1:-3:-2 / analyse=0x3:0x133 / me=umh / subme=9 / psy=1 / psy_rd=1.00:0.00 / mixed_ref=1 / me_range=64 / chroma_me=1 / trellis=1 / 8x8dct=1 / cqm=0 / deadzone=21,11 / fast_pskip=0 / chroma_qp_offset=-4 / threads=12 / sliced_threads=0 / nr=0 / decimate=0 / interlaced=0 / bluray_compat=0 / constrained_intra=0 / bframes=13 / b_pyramid=2 / b_adapt=2 / b_bias=0 / direct=3 / weightb=1 / open_gop=0 / weightp=2 / keyint=240 / keyint_min=24 / scenecut=40 / intra_refresh=0 / rc_lookahead=40 / rc=2pass / mbtree=0 / bitrate=3143 / ratetol=1.0 / qcomp=0.60 / qpmin=0 / qpmax=69 / qpstep=4 / cplxblur=20.0 / qblur=0.5 / vbv_maxrate=62500 / vbv_bufsize=50000 / nal_hrd=none / ip_ratio=1.40 / pb_ratio=1.30 / aq=1:0.70
Язык : English
Default : Да
Forced : Нет

Аудио #1
Идентификатор : 2
Формат : AC-3
Формат/Информация : Audio Coding 3
Расширение режима : CM (complete main)
Параметр Endianness формата : Big
Идентификатор кодека : A_AC3
Продолжительность : 1 ч. 42 м.
Вид битрейта : Постоянный
Битрейт : 448 Кбит/сек
Каналы : 6 каналов
Расположение каналов : Front: L C R, Side: L R, LFE
Частота : 48,0 КГц
Битовая глубина : 16 бит
Метод сжатия : С потерями
Размер потока : 329 Мбайт (11%)
Заголовок : Дубляж (BD RUS) AC3 5.1 @ 448 kbps
Язык : Russian
Default : Да
Forced : Да

Аудио #2
Идентификатор : 3
Формат : AC-3
Формат/Информация : Audio Coding 3
Расширение режима : CM (complete main)
Параметр Endianness формата : Big
Идентификатор кодека : A_AC3
Продолжительность : 1 ч. 42 м.
Вид битрейта : Постоянный
Битрейт : 448 Кбит/сек
Каналы : 6 каналов
Расположение каналов : Front: L C R, Side: L R, LFE
Частота : 48,0 КГц
Битовая глубина : 16 бит
Метод сжатия : С потерями
Размер потока : 329 Мбайт (11%)
Заголовок : Оригинал AC3 5.1 @ 448 kbps
Язык : English
Default : Нет
Forced : Да

Текст
Идентификатор : 4
Формат : UTF-8
Идентификатор кодека : S_TEXT/UTF8
Идентификатор кодека/Информация : UTF-8 Plain Text
Заголовок : SDH
Язык : English
Default : Да
Forced : Да

Меню
00:00:00.000 : en:00:00:00.000
00:10:04.228 : en:00:10:04.228
00:18:06.210 : en:00:18:06.210
00:24:55.660 : en:00:24:55.660
00:28:44.013 : en:00:28:44.013
00:31:32.640 : en:00:31:32.640
00:39:11.682 : en:00:39:11.682
00:48:54.389 : en:00:48:54.389
00:54:35.396 : en:00:54:35.396
00:59:25.103 : en:00:59:25.103
01:04:30.908 : en:01:04:30.908
01:07:15.239 : en:01:07:15.239
01:13:43.251 : en:01:13:43.251
01:20:18.521 : en:01:20:18.521
01:28:27.844 : en:01:28:27.844
01:31:25.271 : en:01:31:25.271[/HTML]


x264 log
[HTML]---[NoImage] x264 [info]: frame I:1527 Avg QP:16.16 size: 67448
---[NoImage] x264 [info]: frame P:30378 Avg QP:17.09 size: 31296
---[NoImage] x264 [info]: frame B:115834 Avg QP:18.94 size: 11354
---[NoImage] x264 [info]: consecutive B-frames: 2.8% 2.0% 6.5% 12.6% 15.4% 47.7% 4.7% 1.4% 1.0% 1.0% 1.7% 2.1% 0.7% 0.5%[/HTML]


Ссылки для скачивания:

http//bt.hqclub.net/files/ok.png Торрент: Неудержимые 2 / The Expendables 2 [US Transfer] (2012) BDRip-AVC

Лучшая онлайн игра!


Публикация материалов сайта на сторонних ресурсах возможна только в неизменном виде.


Обсудить релиз на форуме

Вас также может заинтересовать:


  • 4
 (Голосов: 10)


Распечатать новость на принтере Боевик, Триллер, Приключения
Обновлено: 14.11.2012 - 02:09

КОММЕНТАРИИ

 №1. Marshall Mathers

Статус: Кинокритик | Новостей: 0 | Комментариев: 468
Marshall Mathers Афигенский фильмец. И атомски мощная команда собралась в немbb
~~~

13.11.2012 - 01:11   цитировать  

 №2. SerB_777

Статус: Кинокритик | Новостей: 0 | Комментариев: 583
SerB_777 Sky™, БОЛЬШОЕ СПАСИБО за Труд! Впечатлен и признателен!
Трудно быть объективным, потому, что я готов принять фильм таким, какой он есть, безоговорочно, с благодарностью и восхищением. Потому, что я отношусь к числу современников того периода, когда горбачевская перестройка тяжелой артиллерией крушила стены и проделывала огромные бреши в "железном занавесе", через которые хлынуло, доселе только робко сочившееся, "тлетворное влияние Запада", сея на культурных пространствах и в неподготовленных умах граждан самой читающей в мире страны сорные зерна разлагающего, аморального, чуждого и запретного, а, значит, непреодолимо влекущего. Это было время окончания войны в Афгане, вьетнамской "мальвиновой" джинсы, табачных изделий в трехлитровых банках и расцвета "гнусавого" буржуйского видео (дай Бог здоровья Леониду Вениаминовичу). И по этому видео мы сверяли наши представления о них, и смеялись над их представлениями о нас. Нас учили во всем быть командой – они культивировали героев-одиночек. Мы были такие разные… И вот сейчас, когда спустя столько лет "одинокие волки" собрались в одной команде, понимаешь, что все они – это какая-то неотъемлемая часть бережно хранимых воспоминаний о молодости, что встречаешь их, как своих, как тех, кто в числе первых тогда приходил к нам "оттуда", и теперь снова пришел, но уже из того времени. И я готов им простить все: и возраст, и некоторую неуклюжесть, и бронебойную прямолинейность, и даже то, чего не мог простить тогда - "плохих русских", "избитых" и "убиенных" их киношными героями в неисчислимом количестве. Потому, что я рад снова видеть их на экране, потому, что это – кино, а кино не имеет границ!

- Я слышал, тебя укусила королевская кобра…
- Да. После пяти дней мучений кобра умерла…
Чаку Норрису уже 72…
~~~

14.11.2012 - 11:14   цитировать  

 №3. Radgj

Статус: Новичок | Новостей: 0 | Комментариев: 7
А будет ли в формате avi ? Заранее благодарен
~~~

17.11.2012 - 18:16   цитировать  

 №4. SerB_777

Статус: Кинокритик | Новостей: 0 | Комментариев: 583
SerB_777 Radgj, автор сделал три рипа этого фильма, в том числе и в формате avi. Отлистай назад или воспользуйся поисковиком...
~~~

17.11.2012 - 22:14   цитировать  

 №5. Radgj

Статус: Новичок | Новостей: 0 | Комментариев: 7
Спасибо большое dance3 , уже нашел .
~~~

18.11.2012 - 04:11   цитировать