Вас Приветствует Релиз-группа HQCLUB


Помощь ресурсу, очень ВАЖНО!!!



.


WELCOME
Добро пожаловать в наше интернет - сообщество!

Всех нас объединяет одна страсть - страсть к высококачественному кино. А это наш сайт. Ежедневно здесь мы публикуем десятки качественных, свежих, а порой и эксклюзивных релизов, которые Вы можете скачать совершенно бесплатно и без каких-либо регистраций. Посему рекомендуем Вам добавить HQClub себе в закладки, а также подписаться на нашу ленту новостей, чтобы всегда быть в курсе всех событий. Ну а если Вы такой же синий фил, как и мы, то милости просим на наш форум. И в заключение, попробуйте зарегистрироваться, ведь не так это и сложно и займет всего лишь пару минут! Вот увидите, Вам у нас понравится и Вы вольетесь в наш дружный коллектив! Ну а пока - осматривайтесь = )
Мы рады Вам !





Детсадовский полицейский / Kindergarten Cop (1990) BDRip-AVC

Оформил: Elheym | 23 августа 2014 - 17:10:06 | Обращений: 814 {bookmarks_news}

http//lostpic.net/orig_images/e/4/4/e441c7bf29139c4430adeaff2e344b43.jpg

Информация о фильме:
Название: Детсадовский полицейский
Оригинальное название: Kindergarten Cop
Год выхода: 1990
Жанр: боевик, триллер, комедия, криминал
Режиссер: Айвен Райтман
В ролях: Арнольд Шварценеггер, Пенелопа Энн Миллер, Памела Рид, Линда Хант, Ричард Тайсон, Кэррол Бейкер, Кэти Мориарти, Джозеф Казинс, Кристиан Казинс, Парк Овералл

О фильме: Детектив Джон Кимбл, ветеран «грязных улиц» Лос-Анджелеса, готов справиться с кем угодно. Но для того чтобы заманить в ловушку хитрого преступника, ему приходится устроиться воспитателем в детский сад.

И вот когда он завоевывает уважение малышей и любовь прекрасной учительницы, ему предстоит схватка с преступником.

«Под прикрытием и в осаде»



http//rating.kinopoisk.ru/6302.gif http//tracker.0day.kiev.ua/imdb/imdb_tt0099938.gif

Релиз от - http//hqclub.net/images/hqclub.png
Автор рипа: Elheym

Выпущено: США, Imagine Entertainment, Universal Pictures
Продолжительность: 01:51:14
Перевод: Профессиональный (многоголосый, закадровый) Universal + Профессиональный (многоголосый, закадровый) Премьер Видео + Профессиональный (многоголосый, закадровый) НТВ + Оригинал (английский)
Субтитры: английские (полные, полные SDH)
Главы: присутствуют, сохранены оригинальные

Дополнительные аудиодорожки:
+ Профессиональный (многоголосый, закадровый) ТНТ
+ Профессиональный (многоголосый, закадровый)
+ Авторский (одноголосый, закадровый) А. Михалёв
+ Авторский (одноголосый, закадровый) П. Прямостанов
+ Авторский (одноголосый, закадровый)
+ Профессиональный (многоголосый, закадровый) украинский |Новий канал|
+ Профессиональный (многоголосый, закадровый) украинский |ТРК Украина|

Файл:
Формат: MKV
Качество: BDRip-AVC (источник: ChuckNorriss / Blu-ray Remux / 1080p)
Видео: 1024x554 (1.85:1), 23.976 fps, MPEG-4 AVC, ~2990 kbps avg, 0.220 bit/pixel
Аудио #1: 48 kHz, AC3 Dolby Digital, 2/0 (L,R) ch, ~192 kbps avg (MVO.UNIVERSAL)
Аудио #2: 48 kHz, AC3 Dolby Digital, 2/0 (L,R) ch, ~192 kbps avg (MVO.PREMIER.VIDEO)
Аудио #3: 48 kHz, AC3 Dolby Digital, 2/0 (L,R) ch, ~192 kbps avg (MVO.NTV)
Аудио #4: 48 kHz, AC3 Dolby Digital, 2/0 (L,R) ch, ~192 kbps avg (ENG)
Аудио #5: 48 kHz, AC3 Dolby Digital, 2/0 (L,R) ch, ~192 kbps avg (MVO.TNT) (отдельно)
Аудио #6: 48 kHz, AC3 Dolby Digital, 2/0 (L,R) ch, ~192 kbps avg (MVO) (отдельно)
Аудио #7: 48 kHz, AC3 Dolby Digital, 2/0 (L,R) ch, ~192 kbps avg (AVO.MIHALEV) (отдельно)
Аудио #8: 48 kHz, AC3 Dolby Digital, 2/0 (L,R) ch, ~192 kbps avg (AVO.PRIAMOSTANOV) (отдельно)
Аудио #9: 48 kHz, AC3 Dolby Digital, 2/0 (L,R) ch, ~192 kbps avg (AVO.UNKNOWN) (отдельно)
Аудио #10: 48 kHz, AC3 Dolby Digital, 2/0 (L,R) ch, ~192 kbps avg (MVO.UKR.NOVYJ.KANAL) (отдельно)
Аудио #11: 48 kHz, AC3 Dolby Digital, 2/0 (L,R) ch, ~192 kbps avg (MVO.UKR.TRK.UKRAINA) (отдельно)
Размер: 2.91 GB
Сэмпл: скачать

http//lostpic.net/thumbs_images/1/a/8/1a87a7fa7f2353619c40b780ba.png http//lostpic.net/thumbs_images/b/4/1/b416b0025a7d991fc7100ad5b9d4a8e6.png http//lostpic.net/thumbs_images/d/f/c/dfc80db67241b508d19eb73700bb9916.png http//lostpic.net/thumbs_images/9/d/f/9dfaba02d538a4175b512983a3e4dfb6.png http//lostpic.net/thumbs_images/d/a/0/da0851b26fb13d898eba83d27c64c1b9.png http//lostpic.net/thumbs_images/c/b/2/cb22de43d041ddb5c60e71ae66010d.png

"MediaInfo"

Уникальный идентификатор : 252743756790898693608330335889825028737 (0xBE24AD4C5621079196FFE51CC0355A81)
Полное имя : Kindergarten.Cop.1990.QUADRO.BDRip-AVC.x264.AC3.-HQCLUB.mkv
Формат : Matroska
Версия формата : Version 2
Размер файла : 2,92 Гбайт
Продолжительность : 1 ч. 51 м.
Общий поток : 3758 Кбит/сек
Дата кодирования : UTC 2014-08-23 11:51:56
Программа кодирования : mkvmerge v5.2.0 ('I can't explain') built on Dec 18 2011 18:12:03
Библиотека кодирования : libebml v1.2.3 + libmatroska v1.3.0

Видео
Идентификатор : 1
Формат : AVC
Формат/Информация : Advanced Video Codec
Профиль формата : High@L4.1
Параметр CABAC формата : Да
Параметр ReFrames формата : 14 кадров
Идентификатор кодека : V_MPEG4/ISO/AVC
Продолжительность : 1 ч. 51 м.
Битрейт : 2990 Кбит/сек
Ширина : 1024 пикселя
Высота : 554 пикселя
Соотношение сторон : 1,85:1
Режим частоты кадров : Постоянный
Частота кадров : 23,976 кадра/сек
Цветовое пространство : YUV
Субдискретизация насыщенности : 4:2:0
Битовая глубина : 8 бит
Тип развёртки : Прогрессивная
Бит/(Пиксели*Кадры) : 0.220
Размер потока : 2,27 Гбайт (78%)
Заголовок : Детсадовский полицейский / Kindergarten Cop (1990) BDRip-AVC by HQCLUB [Elheym]
Библиотека кодирования : x264 core 142 r2453 ea0ca51
Настройки программы : cabac=1 / ref=14 / deblock=1:-3:-2 / analyse=0x3:0x113 / me=umh / subme=11 / psy=1 / psy_rd=1.00:0.00 / mixed_ref=1 / me_range=32 / chroma_me=1 / trellis=2 / 8x8dct=1 / cqm=0 / deadzone=21,11 / fast_pskip=1 / chroma_qp_offset=-4 / threads=6 / lookahead_threads=1 / sliced_threads=0 / nr=0 / decimate=1 / interlaced=0 / bluray_compat=0 / constrained_intra=0 / bframes=13 / b_pyramid=2 / b_adapt=2 / b_bias=0 / direct=3 / weightb=1 / open_gop=0 / weightp=2 / keyint=240 / keyint_min=23 / scenecut=40 / intra_refresh=0 / rc_lookahead=40 / rc=2pass / mbtree=1 / bitrate=2990 / ratetol=1.0 / qcomp=0.60 / qpmin=10 / qpmax=69 / qpstep=4 / cplxblur=20.0 / qblur=0.5 / vbv_maxrate=50000 / vbv_bufsize=62500 / nal_hrd=none / filler=0 / ip_ratio=1.40 / aq=1:0.90
Язык : English
Default : Да
Forced : Нет

Аудио #1
Идентификатор : 2
Формат : AC-3
Формат/Информация : Audio Coding 3
Расширение режима : CM (complete main)
Параметр Endianness формата : Big
Идентификатор кодека : A_AC3
Продолжительность : 1 ч. 51 м.
Вид битрейта : Постоянный
Битрейт : 192 Кбит/сек
Каналы : 2 канала
Расположение каналов : Front: L R
Частота : 48,0 КГц
Битовая глубина : 16 бит
Метод сжатия : С потерями
Размер потока : 153 Мбайт (5%)
Заголовок : АС3 2.0 @ 192 kbps - MVO, Universal
Язык : Russian
Default : Нет
Forced : Нет

Аудио #2
Идентификатор : 3
Формат : AC-3
Формат/Информация : Audio Coding 3
Расширение режима : CM (complete main)
Параметр Endianness формата : Big
Идентификатор кодека : A_AC3
Продолжительность : 1 ч. 51 м.
Вид битрейта : Постоянный
Битрейт : 192 Кбит/сек
Каналы : 2 канала
Расположение каналов : Front: L R
Частота : 48,0 КГц
Битовая глубина : 16 бит
Метод сжатия : С потерями
Размер потока : 153 Мбайт (5%)
Заголовок : АС3 2.0 @ 192 kbps - MVO, Premier Video
Язык : Russian
Default : Нет
Forced : Нет

Аудио #3
Идентификатор : 4
Формат : AC-3
Формат/Информация : Audio Coding 3
Расширение режима : CM (complete main)
Параметр Endianness формата : Big
Идентификатор кодека : A_AC3
Продолжительность : 1 ч. 51 м.
Вид битрейта : Постоянный
Битрейт : 192 Кбит/сек
Каналы : 2 канала
Расположение каналов : Front: L R
Частота : 48,0 КГц
Битовая глубина : 16 бит
Метод сжатия : С потерями
Размер потока : 153 Мбайт (5%)
Заголовок : АС3 2.0 @ 192 kbps - MVO, NTV
Язык : Russian
Default : Нет
Forced : Нет

Аудио #4
Идентификатор : 5
Формат : AC-3
Формат/Информация : Audio Coding 3
Расширение режима : CM (complete main)
Параметр Endianness формата : Big
Идентификатор кодека : A_AC3
Продолжительность : 1 ч. 51 м.
Вид битрейта : Постоянный
Битрейт : 192 Кбит/сек
Каналы : 2 канала
Расположение каналов : Front: L R
Частота : 48,0 КГц
Битовая глубина : 16 бит
Метод сжатия : С потерями
Размер потока : 153 Мбайт (5%)
Заголовок : АС3 2.0 @ 192 kbps - Original
Язык : English
Default : Нет
Forced : Нет

Текст #1
Идентификатор : 6
Формат : UTF-8
Идентификатор кодека : S_TEXT/UTF8
Идентификатор кодека/Информация : UTF-8 Plain Text
Заголовок : Full
Язык : English
Default : Нет
Forced : Нет

Текст #2
Идентификатор : 7
Формат : UTF-8
Идентификатор кодека : S_TEXT/UTF8
Идентификатор кодека/Информация : UTF-8 Plain Text
Заголовок : Full SDH
Язык : English
Default : Нет
Forced : Нет

Меню
00:00:00.000 : :00:00:00.000
00:03:27.374 : :00:03:27.374
00:09:53.092 : :00:09:53.092
00:15:13.579 : :00:15:13.579
00:21:55.898 : :00:21:55.898
00:25:05.295 : :00:25:05.295
00:30:26.700 : :00:30:26.700
00:36:24.099 : :00:36:24.099
00:42:38.890 : :00:42:38.890
00:47:33.851 : :00:47:33.851
00:55:45.634 : :00:55:45.634
01:02:02.469 : :01:02:02.469
01:12:24.674 : :01:12:24.674
01:20:38.917 : :01:20:38.917
01:24:14.883 : :01:24:14.883
01:28:32.641 : :01:28:32.641
01:32:02.517 : :01:32:02.517
01:38:32.156 : :01:38:32.156
01:44:47.615 : :01:44:47.615
01:51:13.834 : :01:51:13.834

"x264 log"

x264 [info]: frame I:1085 Avg QP:20.57 size: 79333
x264 [info]: frame P:31738 Avg QP:23.25 size: 29457
x264 [info]: frame B:127195 Avg QP:25.60 size: 11569

x264 [info]: consecutive B-frames: 1.3% 2.2% 6.9% 17.4% 15.0% 36.0% 7.7% 3.2% 3.3% 2.1% 1.9% 1.6% 0.9% 0.6%

x264 [info]: ref P L0: 40.3% 12.1% 18.6% 6.5% 5.7% 3.7% 3.6% 1.7% 1.7% 1.3% 1.3% 1.0% 1.1% 1.0% 0.2% 0.0%
x264 [info]: ref B L0: 67.3% 13.2% 6.6% 3.5% 2.4% 2.0% 1.5% 0.9% 0.7% 0.7% 0.6% 0.3% 0.1%
x264 [info]: ref B L1: 91.3% 8.7%


Ссылки для скачивания:

http//bt.hqclub.net/files/ok.png Торрент: Детсадовский полицейский / Kindergarten Cop (1990) BDRip-AVC

Лучшая онлайн игра!


Публикация материалов сайта на сторонних ресурсах возможна только в неизменном виде.


Обсудить релиз на форуме

Вас также может заинтересовать:


  • 5
 (Голосов: 4)


Распечатать новость на принтере Боевик, Триллер, Комедия, Криминал