Вас Приветствует Релиз-группа HQCLUB


Помощь ресурсу, очень ВАЖНО!!!



.


WELCOME
Добро пожаловать в наше интернет - сообщество!

Всех нас объединяет одна страсть - страсть к высококачественному кино. А это наш сайт. Ежедневно здесь мы публикуем десятки качественных, свежих, а порой и эксклюзивных релизов, которые Вы можете скачать совершенно бесплатно и без каких-либо регистраций. Посему рекомендуем Вам добавить HQClub себе в закладки, а также подписаться на нашу ленту новостей, чтобы всегда быть в курсе всех событий. Ну а если Вы такой же синий фил, как и мы, то милости просим на наш форум. И в заключение, попробуйте зарегистрироваться, ведь не так это и сложно и займет всего лишь пару минут! Вот увидите, Вам у нас понравится и Вы вольетесь в наш дружный коллектив! Ну а пока - осматривайтесь = )
Мы рады Вам !





007: Координаты «Скайфолл» / Skyfall (2012) BDRip 720p

Оформил: Sky™ | 2 февраля 2013 - 14:47:46 | Комментариев: 8 | Обращений: 2435 {bookmarks_news}

http//lostpic.net/images/0852d7d8b7b11e501eeec820dbcfe13e.png

Информация о фильме:
Название: 007: Координаты «Скайфолл»
Оригинальное название: Skyfall
Год выхода: 2012
Жанр: боевик, триллер, криминал, приключения
Режиссер: Сэм Мендес
В ролях: Дэниэл Крэйг, Хавьер Бардем, Джуди Денч, Рэйф Файнс, Наоми Харрис, Бен Уишоу, Альберт Финни, Беренис Марло, Хелен МакКрори, Тония Сотиропулу

О фильме: Лояльность Бонда своей начальнице М под угрозой со стороны ее прошлого, которое внезапно даст о себе знать. MI6 подвергается нападению, и агент 007 должен ликвидировать угрозу, несмотря на цену, которую придется заплатить.

http//www.kinopoisk.ru/rating/408871.gif http//lostpic.net/images/efcfdf24a862c844be4e8e167bf7b5da.gif

Релиз от - http//hqclub.net/images/hqclub.png
Автор рипа: Sky™

Выпущено: Великобритания, США (Metro-Goldwyn-Mayer, Danjaq, Eon Productions)
Продолжительность: 02:23:09
Перевод: Профессиональный (полное дублирование) BD EUR + Оригинальная звуковая дорожка (Английская) + Украинский (многоголосый, закадровый) BD EUR
Субтитры: Русские (2 вида), Английские, Украинские (*.srt, отключаемые)
Сохранены оригинальные чаптеры как на Blu-ray.

Файл:
Формат: mkv
Качество: BDRip 720p (источник: http//lostpic.net/images/6f787abf82c51f23d017a1ae2b3269.png / Blu-Ray Disc EUR / 1080p)
Видео: 1280x534 (2.40:1), 23.976 fps, X264@L4.1 ~5498 kbps avg, 0.336 bit/pixel
Аудио #1: 48 kHz, AC3 Dolby Digital, 3/2 (L,C,R,l,r) + LFE ch, ~640 kbps avg (RUS) BD EUR
Аудио #2: 48 kHz, AC3 Dolby Digital, 3/2 (L,C,R,l,r) + LFE ch, ~640 kbps avg (ENG)
Аудио #3: 48 kHz, AC3 Dolby Digital, 3/2 (L,C,R,l,r) + LFE ch, ~448 kbps avg (UKR) BD EUR
Размер: 7550.20 Mb
http//lostpic.net/images/1b899dddff9c84e7020a856612f5c646.png

http//lostpic.net/thumbs/d651336b33e38454a995f1f3dfa884b5.png http//lostpic.net/thumbs/a16d5d9918c9c2e7b7cb9bf6baf3eb98.png http//lostpic.net/thumbs/df62d0ce8975b6c7d82742dfcd3b9c46.png http//lostpic.net/thumbs/ca99a3ef8a5413d3a1681264df016c.png http//lostpic.net/thumbs/cf674da3d2d37e742168a7b1b90ba687.png http//lostpic.net/thumbs/6feac8eabcd3a47d6d614120a3c595c0.png

MediaINFO
Полное имя : 007.Koordinaty.Skajfoll.2012.BDRip.720p.x264.ac3.-HQCLUB.mkv
Формат : Matroska
Версия формата : Version 2
Размер файла : 7,37 Гбайт
Продолжительность : 2 ч. 23 м.
Общий поток : 7373 Кбит/сек
Дата кодирования : UTC 2013-02-02 09:51:14
Программа кодирования : mkvmerge v5.7.0 ('The Whirlwind') built on Jul 8 2012 20:08:51
Библиотека кодирования : libebml v1.2.3 + libmatroska v1.3.0

Видео
Идентификатор : 1
Формат : AVC
Формат/Информация : Advanced Video Codec
Профиль формата : High@L4.1
Параметр CABAC формата : Да
Параметр ReFrames формата : 4 кадра
Идентификатор кодека : V_MPEG4/ISO/AVC
Продолжительность : 2 ч. 23 м.
Битрейт : 5498 Кбит/сек
Ширина : 1280 пикселей
Высота : 534 пикселя
Соотношение сторон : 2,40:1
Режим частоты кадров : Постоянный
Частота кадров : 23,976 кадра/сек
Цветовое пространство : YUV
Субдискретизация насыщенности : 4:2:0
Битовая глубина : 8 бит
Тип развёртки : Прогрессивная
Бит/(Пиксели*Кадры) : 0.336
Размер потока : 5,50 Гбайт (75%)
Заголовок : 007: Координаты «Скайфолл» / Skyfall (2012) BDRip 720p | HQCLUB
Библиотека кодирования : x264 core 120 r2146 bcd41db
Настройки программы : cabac=1 / ref=3 / deblock=1:-3:-2 / analyse=0x3:0x113 / me=umh / subme=11 / psy=1 / psy_rd=1.00:0.00 / mixed_ref=1 / me_range=48 / chroma_me=1 / trellis=2 / 8x8dct=1 / cqm=0 / deadzone=21,11 / fast_pskip=1 / chroma_qp_offset=-4 / threads=12 / sliced_threads=0 / nr=0 / decimate=1 / interlaced=0 / bluray_compat=0 / constrained_intra=0 / bframes=10 / b_pyramid=2 / b_adapt=2 / b_bias=0 / direct=1 / weightb=1 / open_gop=0 / weightp=2 / keyint=240 / keyint_min=24 / scenecut=40 / intra_refresh=0 / rc_lookahead=40 / rc=crf / mbtree=0 / crf=15.5 / qcomp=0.60 / qpmin=0 / qpmax=69 / qpstep=4 / vbv_maxrate=62500 / vbv_bufsize=50000 / crf_max=0.0 / nal_hrd=none / ip_ratio=1.40 / pb_ratio=1.30 / aq=1:0.70
Язык : English
Default : Да
Forced : Нет

Аудио #1
Идентификатор : 2
Формат : AC-3
Формат/Информация : Audio Coding 3
Расширение режима : CM (complete main)
Параметр Endianness формата : Big
Идентификатор кодека : A_AC3
Продолжительность : 2 ч. 23 м.
Вид битрейта : Постоянный
Битрейт : 640 Кбит/сек
Каналы : 6 каналов
Расположение каналов : Front: L C R, Side: L R, LFE
Частота : 48,0 КГц
Битовая глубина : 16 бит
Метод сжатия : С потерями
Размер потока : 655 Мбайт (9%)
Заголовок : Дубляж (BD EUR) AC3 5.1 @ 640 kbps
Язык : Russian
Default : Да
Forced : Нет

Аудио #2
Идентификатор : 3
Формат : AC-3
Формат/Информация : Audio Coding 3
Расширение режима : CM (complete main)
Параметр Endianness формата : Big
Идентификатор кодека : A_AC3
Продолжительность : 2 ч. 23 м.
Вид битрейта : Постоянный
Битрейт : 640 Кбит/сек
Каналы : 6 каналов
Расположение каналов : Front: L C R, Side: L R, LFE
Частота : 48,0 КГц
Битовая глубина : 16 бит
Метод сжатия : С потерями
Размер потока : 655 Мбайт (9%)
Заголовок : Оригинал AC3 5.1 @ 640 kbps
Язык : English
Default : Нет
Forced : Нет

Аудио #3
Идентификатор : 4
Формат : AC-3
Формат/Информация : Audio Coding 3
Расширение режима : CM (complete main)
Параметр Endianness формата : Big
Идентификатор кодека : A_AC3
Продолжительность : 2 ч. 23 м.
Вид битрейта : Постоянный
Битрейт : 448 Кбит/сек
Каналы : 6 каналов
Расположение каналов : Front: L C R, Side: L R, LFE
Частота : 48,0 КГц
Битовая глубина : 16 бит
Метод сжатия : С потерями
Размер потока : 459 Мбайт (6%)
Заголовок : Дубляж (BD EUR) AC3 5.1 @ 448 kbps
Язык : Ukrainian
Default : Нет
Forced : Нет

Текст #1
Идентификатор : 5
Формат : UTF-8
Идентификатор кодека : S_TEXT/UTF8
Идентификатор кодека/Информация : UTF-8 Plain Text
Заголовок : Forced
Язык : Russian
Default : Да
Forced : Нет

Текст #2
Идентификатор : 6
Формат : UTF-8
Идентификатор кодека : S_TEXT/UTF8
Идентификатор кодека/Информация : UTF-8 Plain Text
Заголовок : Full
Язык : Russian
Default : Нет
Forced : Нет

Текст #3
Идентификатор : 7
Формат : UTF-8
Идентификатор кодека : S_TEXT/UTF8
Идентификатор кодека/Информация : UTF-8 Plain Text
Заголовок : Full
Язык : English
Default : Нет
Forced : Нет

Текст #4
Идентификатор : 8
Формат : UTF-8
Идентификатор кодека : S_TEXT/UTF8
Идентификатор кодека/Информация : UTF-8 Plain Text
Заголовок : Forced
Язык : Ukrainian
Default : Нет
Forced : Нет

Меню
00:00:00.000 : en:00:00:00.000
00:04:28.477 : en:00:04:28.477
00:07:32.452 : en:00:07:32.452
00:12:47.392 : en:00:12:47.392
00:16:47.465 : en:00:16:47.465
00:21:37.338 : en:00:21:37.338
00:25:00.290 : en:00:25:00.290
00:29:25.222 : en:00:29:25.222
00:35:06.146 : en:00:35:06.146
00:38:27.764 : en:00:38:27.764
00:41:24.440 : en:00:41:24.440
00:46:22.905 : en:00:46:22.905
00:50:48.629 : en:00:50:48.629
00:54:53.290 : en:00:54:53.290
00:59:38.742 : en:00:59:38.742
01:05:14.244 : en:01:05:14.244
01:10:16.671 : en:01:10:16.671
01:17:09.750 : en:01:17:09.750
01:20:55.059 : en:01:20:55.059
01:26:10.374 : en:01:26:10.374
01:31:49.754 : en:01:31:49.754
01:37:04.527 : en:01:37:04.527
01:40:49.085 : en:01:40:49.085
01:43:45.970 : en:01:43:45.970
01:45:54.723 : en:01:45:54.723
01:52:10.599 : en:01:52:10.599
01:54:45.796 : en:01:54:45.796
01:58:13.044 : en:01:58:13.044
02:02:49.112 : en:02:02:49.112
02:09:38.646 : en:02:09:38.646
02:14:49.623 : en:02:14:49.623
02:17:46.425 : en:02:17:46.425

x264 log
---[NoImage] x264 [info]: frame I:1872 Avg QP:13.68 size:136236
---[NoImage] x264 [info]: frame P:43523 Avg QP:15.00 size: 58875
---[NoImage] x264 [info]: frame B:160557 Avg QP:17.31 size: 20188
---[NoImage] x264 [info]: consecutive B-frames: 2.4% 2.3% 7.9% 15.5% 17.2% 40.7% 6.3% 3.7% 1.9% 1.1% 1.0%
---[NoImage] x264 [info]: mb I I16..4: 4.7% 75.8% 19.5%
---[NoImage] x264 [info]: mb P I16..4: 0.8% 19.1% 2.1% P16..4: 23.1% 34.0% 16.4% 0.0% 0.0% skip: 4.3%
---[NoImage] x264 [info]: mb B I16..4: 0.1% 2.2% 0.2% B16..8: 30.6% 25.7% 6.5% direct: 8.9% skip:25.8% L0:40.1% L1:41.7% BI:18.2%
---[NoImage] x264 [info]: 8x8 transform intra:85.3% inter:50.7%
---[NoImage] x264 [info]: coded y,uvDC,uvAC intra: 93.4% 92.9% 87.5% inter: 35.1% 34.8% 17.8%
---[NoImage] x264 [info]: i16 v,h,dc,p: 37% 13% 5% 44%
---[NoImage] x264 [info]: i8 v,h,dc,ddl,ddr,vr,hd,vl,hu: 12% 9% 11% 9% 12% 11% 12% 11% 13%
---[NoImage] x264 [info]: i4 v,h,dc,ddl,ddr,vr,hd,vl,hu: 17% 9% 7% 8% 13% 12% 12% 10% 12%
---[NoImage] x264 [info]: i8c dc,h,v,p: 52% 20% 16% 12%
---[NoImage] x264 [info]: Weighted P-Frames: Y:5.2% UV:3.6%
---[NoImage] x264 [info]: ref P L0: 51.4% 9.5% 26.9% 11.7% 0.5%
---[NoImage] x264 [info]: ref B L0: 84.9% 12.4% 2.7%
---[NoImage] x264 [info]: ref B L1: 91.8% 8.2%

Ссылки для скачивания:

http//bt.hqclub.net/files/ok.png Торрент: 007: Координаты «Скайфолл» / Skyfall (2012) BDRip 720p

Лучшая онлайн игра!


Публикация материалов сайта на сторонних ресурсах возможна только в неизменном виде.


Обсудить релиз на форуме

Вас также может заинтересовать:


  • 4
 (Голосов: 7)


Распечатать новость на принтере Боевик, Триллер, Криминал, Приключения
Обновлено: 4.02.2013 - 21:49

КОММЕНТАРИИ

 №1. кит

Статус: Кинокритик | Новостей: 0 | Комментариев: 339
кит а по-меньше?!
~~~

2.02.2013 - 16:44   цитировать  

 №2. кит

Статус: Кинокритик | Новостей: 0 | Комментариев: 339
кит
Цитата:
Размер: 7550.20 Mb

а по-меньше?!
~~~
Ответ от Sky™
ждите тогда BDRip-AVC

2.02.2013 - 16:45   цитировать  

 №3. Magnarogen

Статус: Новичок | Новостей: 0 | Комментариев: 7
Magnarogen Супер! Но подожду когда по-меньше появиться.
~~~

2.02.2013 - 18:38   цитировать  

 №4. Sky™

Статус: Новичок | Новостей: 153 | Комментариев: 43
Sky™
Цитата:
Размер: 7550.20 Mb
а по-меньше?!


ждите тогда BDRip-AVC
~~~

2.02.2013 - 21:13   цитировать  

 №5. Sanches

Статус: Новичок | Новостей: 0 | Комментариев: 1
Крэйг судя по постеру вдруг помолодел лет на 10 минимум)
~~~

3.02.2013 - 11:22   цитировать  

 №6. Sky™

Статус: Новичок | Новостей: 153 | Комментариев: 43
Sky™ кит, кудаж еще меньше? дороги выкидывать? кин идет 2,5 часа вот он и размер, про битрейт можете и не говорить. меньше не будет ни битрейт, ни размер.
~~~

3.02.2013 - 12:57   цитировать  

 №7. SerB_777

Статус: Кинокритик | Новостей: 0 | Комментариев: 583
SerB_777 Sky™, БОЛЬШОЕ СПАСИБО за труд!!!
~~~

4.02.2013 - 23:56   цитировать  

 №8. ru4lan

Статус: Кинокритик | Новостей: 0 | Комментариев: 2736
ru4lan наконецто!
~~~

5.02.2013 - 23:39   цитировать