Вас Приветствует Релиз-группа HQCLUB


Помощь ресурсу, очень ВАЖНО!!!



.


WELCOME
Добро пожаловать в наше интернет - сообщество!

Всех нас объединяет одна страсть - страсть к высококачественному кино. А это наш сайт. Ежедневно здесь мы публикуем десятки качественных, свежих, а порой и эксклюзивных релизов, которые Вы можете скачать совершенно бесплатно и без каких-либо регистраций. Посему рекомендуем Вам добавить HQClub себе в закладки, а также подписаться на нашу ленту новостей, чтобы всегда быть в курсе всех событий. Ну а если Вы такой же синий фил, как и мы, то милости просим на наш форум. И в заключение, попробуйте зарегистрироваться, ведь не так это и сложно и займет всего лишь пару минут! Вот увидите, Вам у нас понравится и Вы вольетесь в наш дружный коллектив! Ну а пока - осматривайтесь = )
Мы рады Вам !





Ханна. Совершенное оружие / Hanna (2011) 720p BDRip

Оформил: DaniLch | 15 сентября 2011 - 09:15:25 | Обращений: 2644 {bookmarks_news}

http//lostpic.net/images/b0423f8d7e51de7b762ad1e8dcf358.png

Название: Ханна. Совершенное оружие
Оригинальное название: Hanna
Год выхода: 2011
Жанр: боевик, триллер, криминал, детектив
Режиссер: Джо Райт / Joe Wright
В ролях: Сирша Ронан, Эрик Бана, Кейт Бланшетт, Том Холландер, Пэрис Эрроусмит, Оливия Уильямс, Джейсон Флеминг, Джон Макмилла, Тим Бекманн, Вики Крипс

О фильме: Хрупкая на первый взгляд Ханна — идеальный солдат. Тайна ее рождения ревностно охраняется американским правительством. Ее миссия — отомстить бывшим работодателям отца, некогда секретного агента. Спецслужбы всего мира выходят на след девочки-убийцы. Охота начинается…

http//www.kinopoisk.ru/rating/468551.gif

Релиз от - http//hqclub.net/images/hqclub.png
Автор релиза: DaniLch

Выпущено: http//lostpic.net/images/ac5cb4a618da65239cf7be53b9ab78.gif США http//lostpic.net/images/9d9b54eb1fcd306b79f4368fc78a.gif Великобритания http//lostpic.net/images/c013773a12d6debdfed1311eb823c322.gif Германия | Focus Features
Продолжительность: 01:51:02

Рип от CHD

Контейнер: MKV
Видео: 1280x534 (2.40:1), 23.976 fps, x264@L4.1, 2pass, ~4120 kbps
Аудио #1: Russian: 48 kHz/24-bit, DTS, 3/2 (L,C,R,l,r) + LFE ch, ~768 kbps |Дубляж, DVD R5|
Аудио #2: English: 48 kHz/24-bit, DTS, 3/2 (L,C,R,l,r) + LFE ch, ~1536 kbps
Субтитры: русские (Forced), русские (Gellard) английские
Размер: 4.95 Gb

http//lostpic.net/thumbs/5909a78b550056fdec91fd43cfc3c184.png http//lostpic.net/thumbs/c26e1518daf874510bbc76c078bf.png http//lostpic.net/thumbs/272e86bab427d647a3870c6f510ae594.png http//lostpic.net/thumbs/9ba502e0fd878b2c9e3405b50450d24c.png

http//bt.hqclub.net/files/ok.png Торрент: Ханна. Совершенное оружие / Hanna (2011) 720p BDRip

MediaInfo
General
Complete name : Hanna.2011.BDRip.720p.H264.DTS.-HQCLUB.mkv
Format : Matroska
File size : 4.95 GiB
Duration : 1h 51mn
Overall bit rate : 6 386 Kbps
Movie name : 720p BDRip by CHD
Encoded date : UTC 2011-09-15 05:05:36
Writing application : mkvmerge v4.9.1 ('Ich will') built on Jul 11 2011 23:53:15
Writing library : libebml v1.2.1 + libmatroska v1.1.1

Video
ID : 1
Format : AVC
Format/Info : Advanced Video Codec
Format profile : High@L4.1
Format settings, CABAC : Yes
Format settings, ReFrames : 12 frames
Codec ID : V_MPEG4/ISO/AVC
Duration : 1h 51mn
Bit rate : 4 120 Kbps
Width : 1 280 pixels
Height : 534 pixels
Display aspect ratio : 2.35:1
Frame rate : 23.976 fps
Color space : YUV
Chroma subsampling : 4:2:0
Bit depth : 8 bits
Scan type : Progressive
Bits/(Pixel*Frame) : 0.251
Stream size : 3.10 GiB (63%)
Title : Hanna (2011) 720p BDRip
Writing library : x264 core 116 r2057 0ba8a9c
Encoding settings : cabac=1 / ref=12 / deblock=1:-3:-3 / analyse=0x3:0x113 / me=umh / subme=10 / psy=1 / psy_rd=1.10:0.15 / mixed_ref=1 / me_range=32 / chroma_me=1 / trellis=2 / 8x8dct=1 / cqm=2 / deadzone=21,11 / fast_pskip=0 / chroma_qp_offset=-2 / threads=32 / sliced_threads=0 / nr=0 / decimate=1 / interlaced=0 / bluray_compat=0 / constrained_intra=0 / bframes=6 / b_pyramid=2 / b_adapt=2 / b_bias=0 / direct=3 / weightb=1 / open_gop=0 / weightp=2 / keyint=250 / keyint_min=23 / scenecut=40 / intra_refresh=0 / rc_lookahead=60 / rc=2pass / mbtree=1 / bitrate=4120 / ratetol=1.0 / qcomp=0.60 / qpmin=1 / qpmax=63 / qpstep=4 / cplxblur=20.0 / qblur=0.5 / vbv_maxrate=40000 / vbv_bufsize=30000 / nal_hrd=none / ip_ratio=1.40 / aq=1:0.80
Language : English

Audio #1
ID : 2
Format : DTS
Format/Info : Digital Theater Systems
Codec ID : A_DTS
Duration : 1h 51mn
Bit rate mode : Constant
Bit rate : 755 Kbps
Channel(s) : 6 channels
Channel positions : Front: L C R, Side: L R, LFE
Sampling rate : 48.0 KHz
Bit depth : 24 bits
Compression mode : Lossy
Stream size : 599 MiB (12%)
Title : DTS 5.1 @ 768 kbps - Дубляж, DVD R5
Language : Russian

Audio #2
ID : 3
Format : DTS
Format/Info : Digital Theater Systems
Codec ID : A_DTS
Duration : 1h 51mn
Bit rate mode : Constant
Bit rate : 1 510 Kbps
Channel(s) : 6 channels
Channel positions : Front: L C R, Side: L R, LFE
Sampling rate : 48.0 KHz
Bit depth : 24 bits
Compression mode : Lossy
Stream size : 1.17 GiB (24%)
Title : DTS 5.1 @ 1536 kbps
Language : English

Text #1
ID : 4
Format : UTF-8
Codec ID : S_TEXT/UTF8
Codec ID/Info : UTF-8 Plain Text
Title : Forced
Language : Russian

Text #2
ID : 5
Format : UTF-8
Codec ID : S_TEXT/UTF8
Codec ID/Info : UTF-8 Plain Text
Title : Gellard
Language : Russian

Text #3
ID : 6
Format : UTF-8
Codec ID : S_TEXT/UTF8
Codec ID/Info : UTF-8 Plain Text
Language : English

Menu
00:00:00.000 : en:00:00:00.000
00:05:21.947 : en:00:05:21.947
00:10:54.362 : en:00:10:54.362
00:15:08.741 : en:00:15:08.741
00:19:59.907 : en:00:19:59.907
00:24:30.594 : en:00:24:30.594
00:30:07.556 : en:00:30:07.556
00:35:18.074 : en:00:35:18.074
00:41:34.534 : en:00:41:34.534
00:46:17.108 : en:00:46:17.108
00:50:06.170 : en:00:50:06.170
00:55:35.916 : en:00:55:35.916
01:00:43.390 : en:01:00:43.390
01:04:27.655 : en:01:04:27.655
01:11:47.678 : en:01:11:47.678
01:19:58.711 : en:01:19:58.711
01:24:50.627 : en:01:24:50.627
01:29:35.078 : en:01:29:35.078
01:36:45.842 : en:01:36:45.842
01:43:25.199 : en:01:43:25.199


Лучшая онлайн игра!


Публикация материалов сайта на сторонних ресурсах возможна только в неизменном виде.


Обсудить релиз на форуме

Вас также может заинтересовать:


  • 3
 (Голосов: 19)


Распечатать новость на принтере Боевик, Триллер, Криминал, Детектив
Обновлено: 17.09.2011 - 12:12