Вас Приветствует Релиз-группа HQCLUB


Помощь ресурсу, очень ВАЖНО!!!



.


WELCOME
Добро пожаловать в наше интернет - сообщество!

Всех нас объединяет одна страсть - страсть к высококачественному кино. А это наш сайт. Ежедневно здесь мы публикуем десятки качественных, свежих, а порой и эксклюзивных релизов, которые Вы можете скачать совершенно бесплатно и без каких-либо регистраций. Посему рекомендуем Вам добавить HQClub себе в закладки, а также подписаться на нашу ленту новостей, чтобы всегда быть в курсе всех событий. Ну а если Вы такой же синий фил, как и мы, то милости просим на наш форум. И в заключение, попробуйте зарегистрироваться, ведь не так это и сложно и займет всего лишь пару минут! Вот увидите, Вам у нас понравится и Вы вольетесь в наш дружный коллектив! Ну а пока - осматривайтесь = )
Мы рады Вам !





Добро пожаловать в капкан / Welcome to the Punch [CAN] (2013) BDRip-AVC

Оформил: Elheym | 7 июля 2014 - 12:19:20 | Комментариев: 2 | Обращений: 1325 {bookmarks_news}

http//lostpic.net/orig_images/a/7/c/a7ca34c59cbb99f70e1eaec30d92d477.jpg

Информация о фильме
Название: Добро пожаловать в капкан
Оригинальное название: Welcome to the Punch
Год выхода: 2013
Жанр: боевик, триллер, криминал
Режиссер: Эрен Криви / Eran Creevy
В ролях: Джеймс МакЭвой, Марк Стронг, Андреа Райзборо, Джонни Харрис, Дэниэл Мейс, Дэвид Моррисси, Питер Муллан, Наташа Литтл, Дэниэл Калуя, Рут Шин

О фильме: Бывший преступник Джейкоб Стернбуд вынужден вернуться в Лондон из своего убежища, когда его сын вовлечен в ограбление пошедшее не так. У детектива Макса Левински появляется шанс поймать человека, которому всегда удавалось уйти. Соперники снова меряются силами, но они сталкиваются с более глубоким преступным заговором, с которым вынуждены бороться, чтобы выжить.

http//rating.kinopoisk.ru/2772.gif http//tracker.0day.kiev.ua/imdb/imdb_tt1684233.gif

Релиз от - http//hqclub.net/images/hqclub.png
Автор рипа: Elheym

Выпущено: Великобритания, США, Automatik Entertainment, Between The Eyes, Scott Free Productions, Worldview Entertainment
Продолжительность: 01:39:47
Перевод 1: Профессиональный (полное дублирование) BD RUS
Перевод 2: Одноголосый (закадровый) Е. Гаевский
Оригинальная аудиодорожка: английская
Субтитры: русские (полные, полные SDH, полные SDH цветные), английские (полные, полные SDH, полные SDH цветные)
Главы: присутствуют, сохранены оригинальные

Дополнительные аудиодорожки:
+ Одноголосый (закадровый) Е. Гаевский

Файл:
Формат: MKV
Качество: BDRip-AVC (источник: http//lostpic.net/images/20a38122bcc5994b3cdae6e4b4b0.png / Blu-ray [CAN Transfer] Disc / 1080p)
Видео: 1152x480 (2.40:1), 23,976 fps, MPEG-4 AVC, ~2408 kbps avg, 0.182 bit/pixel
Аудио #1: 48 kHz, AC3 Dolby Digital, 3/2 (L,C,R,l,r) + LFE ch, ~448 kbps (DUB)
Аудио #2: 48 kHz, AC3 Dolby Digital, 3/2 (L,C,R,l,r) + LFE ch, ~448 kbps (UKR)
Аудио #3: 48 kHz, AC3 Dolby Digital, 3/2 (L,C,R,l,r) + LFE ch, ~448 kbps (ENG)
Аудио #4: 48 kHz, AC3 Dolby Digital, 3/2 (L,C,R,l,r) + LFE ch, ~448 kbps (VO.GAEVSKIJ) (отдельно)
Размер: 2.66 GB
Сэмпл: скачать

http//lostpic.net/thumbs_images/d/e/2/de2ad4201c8a19bc516a38a878dcbf59.png http//lostpic.net/thumbs_images/e/7/3/e73bb5cd1473e30346e7f8061e3cd86b.png http//lostpic.net/thumbs_images/f/9/6/f96af281704638b7fa0011e4eccc.png http//lostpic.net/thumbs_images/d/e/6/de6d1fe8f2e278a20ad0be2a30605ec3.png http//lostpic.net/thumbs_images/d/3/0/d30e2e7116ffcf990583fc45c9d1.png http//lostpic.net/thumbs_images/c/d/0/cd0ec80dee43dece3512168dfc6ce3.png

"MediaInfo"

Уникальный идентификатор : 210251757181070146247266593052499181426 (0x9E2D03F7E81C09EEBEDF7ACEC888FF72)
Полное имя : Welcome.to.the.Punch.CAN.2013.TRIPLE.BDRip-AVC.x264.AC3.-HQCLUB.mkv
Формат : Matroska
Версия формата : Version 2
Размер файла : 2,67 Гбайт
Продолжительность : 1 ч. 39 м.
Общий поток : 3828 Кбит/сек
Дата кодирования : UTC 2015-01-27 22:51:08
Программа кодирования : mkvmerge v5.2.0 ('I can't explain') built on Dec 18 2011 18:12:03
Библиотека кодирования : libebml v1.2.3 + libmatroska v1.3.0
Attachements : Cover.jpg

Видео
Идентификатор : 1
Формат : AVC
Формат/Информация : Advanced Video Codec
Профиль формата : High@L4.1
Параметр CABAC формата : Да
Параметр ReFrames формата : 13 кадров
Идентификатор кодека : V_MPEG4/ISO/AVC
Продолжительность : 1 ч. 39 м.
Битрейт : 2408 Кбит/сек
Ширина : 1152 пикселя
Высота : 480 пикселей
Соотношение сторон : 2,40:1
Режим частоты кадров : Постоянный
Частота кадров : 23,976 кадра/сек
Цветовое пространство : YUV
Субдискретизация насыщенности : 4:2:0
Битовая глубина : 8 бит
Тип развёртки : Прогрессивная
Бит/(Пиксели*Кадры) : 0.182
Размер потока : 1,68 Гбайт (63%)
Заголовок : Добро пожаловать в капкан / Welcome to the Punch [CAN] (2013) BDRip-AVC by HQCLUB [Elheym]
Библиотека кодирования : x264 core 144 r2525kMod 40bb568
Настройки программы : cabac=1 / ref=13 / deblock=1:-3:-2 / analyse=0x3:0x133 / me=umh / subme=11 / psy=1 / fade_compensate=0.00 / psy_rd=0.95:0.00 / mixed_ref=1 / me_range=32 / chroma_me=1 / trellis=2 / 8x8dct=1 / cqm=0 / deadzone=21,11 / fast_pskip=0 / chroma_qp_offset=-4 / threads=6 / lookahead_threads=1 / sliced_threads=0 / nr=0 / decimate=1 / interlaced=0 / bluray_compat=0 / constrained_intra=0 / fgo=0 / bframes=14 / b_pyramid=2 / b_adapt=2 / b_bias=0 / direct=1 / weightb=1 / open_gop=0 / weightp=2 / keyint=230 / keyint_min=23 / scenecut=40 / intra_refresh=0 / rc_lookahead=40 / rc=crf / mbtree=0 / crf=18.7000 / qcomp=0.70 / qpmin=0 / qpmax=69 / qpstep=4 / vbv_maxrate=50000 / vbv_bufsize=62500 / crf_max=0.0 / nal_hrd=none / filler=0 / ip_ratio=1.40 / pb_ratio=1.30 / aq=3:0.90 / zones=132868,143556,b=0.3
Язык : English
Default : Да
Forced : Нет

Аудио #1
Идентификатор : 2
Формат : AC-3
Формат/Информация : Audio Coding 3
Расширение режима : CM (complete main)
Параметр Endianness формата : Big
Идентификатор кодека : A_AC3
Продолжительность : 1 ч. 39 м.
Вид битрейта : Постоянный
Битрейт : 448 Кбит/сек
Каналы : 6 каналов
Расположение каналов : Front: L C R, Side: L R, LFE
Частота : 48,0 КГц
Битовая глубина : 16 бит
Метод сжатия : С потерями
Размер потока : 320 Мбайт (12%)
Заголовок : АС3 5.1 @ 448 kbps - Dub
Язык : Russian
Default : Нет
Forced : Нет

Аудио #2
Идентификатор : 3
Формат : AC-3
Формат/Информация : Audio Coding 3
Расширение режима : CM (complete main)
Параметр Endianness формата : Big
Идентификатор кодека : A_AC3
Продолжительность : 1 ч. 39 м.
Вид битрейта : Постоянный
Битрейт : 448 Кбит/сек
Каналы : 6 каналов
Расположение каналов : Front: L C R, Side: L R, LFE
Частота : 48,0 КГц
Битовая глубина : 16 бит
Метод сжатия : С потерями
Размер потока : 320 Мбайт (12%)
Заголовок : АС3 5.1 @ 448 kbps - Dub
Язык : Ukrainian
Default : Нет
Forced : Нет

Аудио #3
Идентификатор : 4
Формат : AC-3
Формат/Информация : Audio Coding 3
Расширение режима : CM (complete main)
Параметр Endianness формата : Big
Идентификатор кодека : A_AC3
Продолжительность : 1 ч. 39 м.
Вид битрейта : Постоянный
Битрейт : 448 Кбит/сек
Каналы : 6 каналов
Расположение каналов : Front: L C R, Side: L R, LFE
Частота : 48,0 КГц
Битовая глубина : 16 бит
Метод сжатия : С потерями
Размер потока : 320 Мбайт (12%)
Заголовок : АС3 5.1 @ 448 kbps - Original
Язык : English
Default : Нет
Forced : Нет

Текст #1
Идентификатор : 5
Формат : UTF-8
Идентификатор кодека : S_TEXT/UTF8
Идентификатор кодека/Информация : UTF-8 Plain Text
Заголовок : Full
Язык : Russian
Default : Нет
Forced : Нет

Текст #2
Идентификатор : 6
Формат : UTF-8
Идентификатор кодека : S_TEXT/UTF8
Идентификатор кодека/Информация : UTF-8 Plain Text
Заголовок : Full SDH
Язык : Russian
Default : Нет
Forced : Нет

Текст #3
Идентификатор : 7
Формат : UTF-8
Идентификатор кодека : S_TEXT/UTF8
Идентификатор кодека/Информация : UTF-8 Plain Text
Заголовок : Full SDH Colored
Язык : Russian
Default : Нет
Forced : Нет

Текст #4
Идентификатор : 8
Формат : UTF-8
Идентификатор кодека : S_TEXT/UTF8
Идентификатор кодека/Информация : UTF-8 Plain Text
Заголовок : Full
Язык : English
Default : Нет
Forced : Нет

Текст #5
Идентификатор : 9
Формат : UTF-8
Идентификатор кодека : S_TEXT/UTF8
Идентификатор кодека/Информация : UTF-8 Plain Text
Заголовок : Full SDH
Язык : English
Default : Нет
Forced : Нет

Текст #6
Идентификатор : 10
Формат : UTF-8
Идентификатор кодека : S_TEXT/UTF8
Идентификатор кодека/Информация : UTF-8 Plain Text
Заголовок : Full SDH Colored
Язык : English
Default : Нет
Forced : Нет

Меню
00:00:00.000 : :Chapter 01
00:08:29.258 : :Chapter 02
00:15:54.745 : :Chapter 03
00:25:26.566 : :Chapter 04
00:32:20.355 : :Chapter 05
00:41:14.429 : :Chapter 06
00:49:53.615 : :Chapter 07
01:00:20.074 : :Chapter 08
01:08:27.270 : :Chapter 09
01:14:00.518 : :Chapter 10
01:23:20.787 : :Chapter 11
01:32:21.703 : :Chapter 12
01:39:47.481 : :Chapter 13

"x264 log"

x264 [info]: frame I:1131 Avg QP:15.37 size: 68930
x264 [info]: frame P:31032 Avg QP:18.34 size: 25851
x264 [info]: frame B:111394 Avg QP:19.35 size: 8769

x264 [info]: consecutive B-frames: 3.9% 2.5% 5.9% 12.5% 14.3% 44.7% 5.3% 1.1% 3.0% 0.8% 1.0% 3.5% 0.5% 0.4% 0.5%

x264 [info]: ref P L0: 45.7% 8.9% 18.2% 6.6% 5.3% 3.6% 3.3% 1.8% 1.7% 1.3% 1.3% 1.1% 1.1% 0.2% 0.0%
x264 [info]: ref B L0: 70.1% 12.5% 6.1% 3.1% 2.2% 1.8% 1.4% 0.9% 0.7% 0.7% 0.4% 0.2%
x264 [info]: ref B L1: 92.1% 7.9%


Цитата:
Перевод Евгения Гаевского доступен благодаря mihey10, работа со звуком - Perevodman, в переводе присутствует ненормативная лексика.


Ссылки для скачивания:

http//bt.hqclub.net/files/ok.png Торрент: Добро пожаловать в капкан / Welcome to the Punch [CAN] (2013) BDRip-AVC

Лучшая онлайн игра!


Публикация материалов сайта на сторонних ресурсах возможна только в неизменном виде.


Обсудить релиз на форуме

Вас также может заинтересовать:


  • 5
 (Голосов: 2)


Распечатать новость на принтере Боевик, Триллер, Криминал
Обновлено: 29.01.2015 - 22:31

КОММЕНТАРИИ

 №1. ru4lan

Статус: Кинокритик | Новостей: 0 | Комментариев: 2736
ru4lan спасибо!
~~~

7.07.2014 - 18:24   цитировать  

 №2. Elheym

Статус: Стажер | Новостей: 320 | Комментариев: 70
Торрент файл перезалит.
Видеоряд заменен. Добавлен лицензионный русский дубляж + украинский дубляж.
~~~

28.01.2015 - 17:22   цитировать