Вас Приветствует Релиз-группа HQCLUB


Помощь ресурсу, очень ВАЖНО!!!



.


WELCOME
Добро пожаловать в наше интернет - сообщество!

Всех нас объединяет одна страсть - страсть к высококачественному кино. А это наш сайт. Ежедневно здесь мы публикуем десятки качественных, свежих, а порой и эксклюзивных релизов, которые Вы можете скачать совершенно бесплатно и без каких-либо регистраций. Посему рекомендуем Вам добавить HQClub себе в закладки, а также подписаться на нашу ленту новостей, чтобы всегда быть в курсе всех событий. Ну а если Вы такой же синий фил, как и мы, то милости просим на наш форум. И в заключение, попробуйте зарегистрироваться, ведь не так это и сложно и займет всего лишь пару минут! Вот увидите, Вам у нас понравится и Вы вольетесь в наш дружный коллектив! Ну а пока - осматривайтесь = )
Мы рады Вам !





Форсаж 7 / Furious Seven (2015) BDRip 720p

Оформил: Rensler | 12 августа 2015 - 22:18:19 | Комментариев: 1 | Обращений: 997 {bookmarks_news}

http//img10.lostpic.net/2016/07/31/6005591fc23ec032cc736e35c14690a6.png



Информация о фильме
Название: Форсаж 7
Оригинальное название: Furious 7
Год выхода: 2015
Жанр: Боевик, Триллер, Криминал
В ролях: Пол Уокер (Brian O'Conner), Вин Дизель (Dominic Toretto), Джейсон Стэйтем (Deckard Shaw), Мишель Родригес (Letty), Дуэйн Джонсон (Hobbs), Тайриз Гибсон (Roman), Лудакрис (Tej), Натали Эммануэль (Ramsey), Джордана Брюстер (Mia), Курт Рассел (Mr. Nobody), Тони Джа (Kiet), Джимон Хонсу (Jakande), Эльза Патаки (Elena), Лукас Блэк (Sean Boswell), Галь Гадот (Gisele), Люк Эванс (Owen Shaw), Санг Кенг (Han), Ронда Раузи (Kara)
Режиссёр: Джеймс Ван / James Wan

О фильме: Они покорили Токио и Рио, Лос-Анджелес и Лондон. Но мир больше не играет по их правилам. Зной арабских пустынь, неприлично высокие небоскребы, миллионы долларов на колесах и очень, очень знаменитый злодей. Скорость не знает границ.

«Месть не знает границ»



User Rating: 7.62/10 (64 505 votes)
IMDB: 7.50/10 (199 875 votes)

Релиз от - http//hqclub.net/images/hqclub.png
Автор рипа: Rensler

Выпущено: США, Аргентина
Студия:China Film Co., Dentsu, Fast 7 Productions, Media Rights Capital, One Race Films, Original Film, Universal
Продолжительность: 02:17:19
Перевод:
• Профессиональный (полное дублирование) BD CEE [SIZE="1"][snx. BLUEBIRD][/SIZE]
Оригинальная аудиодорожка: Английская
Субтитры: Русские (форсированные, полные), Английские (полные, SDH)
Главы: Сохранены чаптеры с оригинального Blu-ray Disc

Файл:
Формат: MKV
Качество: BDRip 720p (источник: BLUEBIRD / Blu-ray Disc)
Видео: 1280x534 (0% AR dist.) (2,40:1) at 23.976, x264@L4.1 ~ ~ 6815 kbps avg, 0.416 bit/pixel
Аудио#1: 48 kHz/16-bit, AC3 Dolby Digital, 3/2 (L,C,R,l,r) + LFE ch, ~ 640 kbps avg | RUS
Аудио#2: 48 kHz/16-bit, AC3 Dolby Digital, 3/2 (L,C,R,l,r) + LFE ch, ~ 640 kbps avg | ENG
Размер: 7,76 GB (DVD-9)
Скачать: Семпл

"MI@logx.264"
logx.264 написал:
x264 [info]: frame I:2139 Avg QP:14.18 size:141675
x264 [info]: frame P:55414 Avg QP:16.48 size: 58815
x264 [info]: frame B:140000 Avg QP:18.53 size: 24668
x264 [info]: consecutive B-frames: 5.8% 5.7% 13.6% 27.8% 16.1% 26.6% 2.9% 0.8% 0.5%
x264 [info]: ref P L0: 54.1% 9.2% 15.7% 7.7% 5.2% 3.6% 2.7% 1.6% 0.2% 0.0%

MediaInfo написал:
Уникальный идентификатор : 238945416507407404949275925639349879774 (0xB3C3369907F7967EBFE721037F1343DE)
Полное имя : Furious.7.2015.BluRay.720p.Rus.Eng.-HQCLUB.mkv
Формат : Matroska
Версия формата : Version 4 / Version 2
Размер файла : 7,76 Гбайт
Продолжительность : 2 ч. 17 м.
Общий поток : 8096 Кбит/сек
Название фильма : Форсаж 7 / Furious Seven (2015) Blu-ray 720p
Дата кодирования : UTC 2016-07-30 10:57:43
Программа кодирования : mkvmerge v8.3.0 ('Over the Horizon') 64bit
Библиотека кодирования : libebml v1.3.1 + libmatroska v1.4.2
Attachements : Furious.png

Видео
Идентификатор : 1
Формат : AVC
Формат/Информация : Advanced Video Codec
Профиль формата : High@L4.1
Параметр CABAC формата : Да
Параметр ReFrames формата : 8 кадров
Идентификатор кодека : V_MPEG4/ISO/AVC
Продолжительность : 2 ч. 17 м.
Битрейт : 6815 Кбит/сек
Ширина : 1280 пикселей
Высота : 534 пикселя
Соотношение сторон : 2,40:1
Режим частоты кадров : Постоянный
Частота кадров : 23,976 кадра/сек
Цветовое пространство : YUV
Субдискретизация насыщенности : 4:2:0
Битовая глубина : 8 бит
Тип развёртки : Прогрессивная
Бит/(Пиксели*Кадры) : 0.416
Размер потока : 6,38 Гбайт (82%)
Заголовок : Release by Rensler
Библиотека кодирования : x264 core 148 r2692 64f4e24
Настройки программы : cabac=1 / ref=8 / deblock=1:-3:-3 / analyse=0x3:0x113 / me=umh / subme=10 / psy=1 / psy_rd=0.90:0.00 / mixed_ref=1 / me_range=48 / chroma_me=1 / trellis=2 / 8x8dct=1 / cqm=0 / deadzone=21,11 / fast_pskip=0 / chroma_qp_offset=-2 / threads=3 / lookahead_threads=1 / sliced_threads=0 / nr=0 / decimate=0 / interlaced=0 / bluray_compat=0 / constrained_intra=0 / bframes=8 / b_pyramid=2 / b_adapt=2 / b_bias=0 / direct=3 / weightb=1 / open_gop=0 / weightp=2 / keyint=230 / keyint_min=23 / scenecut=40 / intra_refresh=0 / rc_lookahead=60 / rc=2pass / mbtree=0 / bitrate=6815 / ratetol=1.0 / qcomp=0.65 / qpmin=0 / qpmax=69 / qpstep=4 / cplxblur=20.0 / qblur=0.5 / vbv_maxrate=50000 / vbv_bufsize=62500 / nal_hrd=none / filler=0 / ip_ratio=1.25 / pb_ratio=1.15 / aq=2:0.80
Язык : English
Default : Да
Forced : Нет

Аудио #1
Идентификатор : 2
Формат : AC-3
Формат/Информация : Audio Coding 3
Расширение режима : CM (complete main)
Параметр Endianness формата : Big
Идентификатор кодека : A_AC3
Продолжительность : 2 ч. 17 м.
Вид битрейта : Постоянный
Битрейт : 640 Кбит/сек
Каналы : 6 каналов
Расположение каналов : Front: L C R, Side: L R, LFE
Частота : 48,0 КГц
Метод сжатия : С потерями
Размер потока : 629 Мбайт (8%)
Заголовок : BD CEE
Язык : Russian
Default : Да
Forced : Нет

Аудио #2
Идентификатор : 3
Формат : AC-3
Формат/Информация : Audio Coding 3
Расширение режима : CM (complete main)
Параметр Endianness формата : Big
Идентификатор кодека : A_AC3
Продолжительность : 2 ч. 17 м.
Вид битрейта : Постоянный
Битрейт : 640 Кбит/сек
Каналы : 6 каналов
Расположение каналов : Front: L C R, Side: L R, LFE
Частота : 48,0 КГц
Метод сжатия : С потерями
Размер потока : 629 Мбайт (8%)
Заголовок : Original
Язык : English
Default : Нет
Forced : Нет

Текст #1
Идентификатор : 4
Формат : UTF-8
Идентификатор кодека : S_TEXT/UTF8
Идентификатор кодека/Информация : UTF-8 Plain Text
Заголовок : Forced
Язык : Russian
Default : Да
Forced : Нет

Текст #2
Идентификатор : 5
Формат : UTF-8
Идентификатор кодека : S_TEXT/UTF8
Идентификатор кодека/Информация : UTF-8 Plain Text
Заголовок : Full
Язык : Russian
Default : Нет
Forced : Нет

Текст #3
Идентификатор : 6
Формат : UTF-8
Идентификатор кодека : S_TEXT/UTF8
Идентификатор кодека/Информация : UTF-8 Plain Text
Заголовок : Full
Язык : English
Default : Нет
Forced : Нет

Текст #4
Идентификатор : 7
Формат : UTF-8
Идентификатор кодека : S_TEXT/UTF8
Идентификатор кодека/Информация : UTF-8 Plain Text
Заголовок : SDH
Язык : English
Default : Нет
Forced : Нет

Текст #5
Идентификатор : 8
Формат : UTF-8
Идентификатор кодека : S_TEXT/UTF8
Идентификатор кодека/Информация : UTF-8 Plain Text
Заголовок : SDH colored
Язык : English
Default : Нет
Forced : Нет

Меню
00:00:00.000 : :Chapter 01
00:04:39.946 : :Chapter 02
00:11:29.480 : :Chapter 03
00:16:39.288 : :Chapter 04
00:25:54.051 : :Chapter 05
00:33:43.895 : :Chapter 06
00:41:44.585 : :Chapter 07
00:46:41.005 : :Chapter 08
00:52:10.710 : :Chapter 09
01:02:31.414 : :Chapter 10
01:06:16.679 : :Chapter 11
01:14:16.868 : :Chapter 12
01:22:34.032 : :Chapter 13
01:33:21.136 : :Chapter 14
01:38:27.484 : :Chapter 15
01:45:40.082 : :Chapter 16
01:53:54.452 : :Chapter 17
01:58:31.061 : :Chapter 18
02:06:19.863 : :Chapter 19
02:11:31.173 : :Chapter 20
02:19:54.593 : :Chapter 21


http//img10.lostpic.net/2016/07/31/0a145f7d0d0b84b1c8c815ffa9.th.png http//img10.lostpic.net/2016/07/31/6983c3b3941a96d546dc1542ac4ce9.th.png http//img10.lostpic.net/2016/07/31/f46a8e3b7c0f0cc9c665ab5855c9ceec.th.png http//img10.lostpic.net/2016/07/31/f4515ecceada8febea6c5197eb8c854a.th.png
http//img10.lostpic.net/2016/07/31/77cb2fbfff97a8678d0cc61bef786ddc.th.png http//img10.lostpic.net/2016/07/31/ba964bc0ea6a3d9a421f92d182e68b97.th.png http//img10.lostpic.net/2016/07/31/6f5282734ecece299eb9a96bad82e896.th.png http//img10.lostpic.net/2016/07/31/955044f598b8818debf3cbbda3a77e.th.png

Ссылки для скачивания:
http//bt.hqclub.net/files/ok.png Торрент: Форсаж 7 / Furious Seven (2015) BDRip


Публикация материалов сайта на сторонних ресурсах возможна только в неизменном виде.


Обсудить релиз на форуме

Вас также может заинтересовать:


  • 5
 (Голосов: 10)


Распечатать новость на принтере Боевик, Триллер, Криминал
Обновлено: 31.07.2016 - 07:24

КОММЕНТАРИИ

 №1. LeonidMikhalin

Статус: Зритель | Новостей: 0 | Комментариев: 182
Спасибо

18.10.2016 - 23:25   цитировать