Вас Приветствует Релиз-группа HQCLUB


Помощь ресурсу, очень ВАЖНО!!!



.


WELCOME
Добро пожаловать в наше интернет - сообщество!

Всех нас объединяет одна страсть - страсть к высококачественному кино. А это наш сайт. Ежедневно здесь мы публикуем десятки качественных, свежих, а порой и эксклюзивных релизов, которые Вы можете скачать совершенно бесплатно и без каких-либо регистраций. Посему рекомендуем Вам добавить HQClub себе в закладки, а также подписаться на нашу ленту новостей, чтобы всегда быть в курсе всех событий. Ну а если Вы такой же синий фил, как и мы, то милости просим на наш форум. И в заключение, попробуйте зарегистрироваться, ведь не так это и сложно и займет всего лишь пару минут! Вот увидите, Вам у нас понравится и Вы вольетесь в наш дружный коллектив! Ну а пока - осматривайтесь = )
Мы рады Вам !





Схватка / The Grey [US-Transfer] (2011) BDRip 720p

Оформил: Sky™ | 8 мая 2012 - 11:47:50 | Обращений: 1684 {bookmarks_news}

http//lostpic.net/images/e079522b8905dbdbcc3f14a7f3ba4a72.png

Информация о фильме:
Название: Схватка
Оригинальное название: The Grey
Год выхода: 2011
Жанр: боевик, триллер, драма, приключения
Режиссер: Джо Карнахан
В ролях: Лиам Нисон, Фрэнк Грилло, Дермот Малруни, Даллас Робертс, Джо Андерсон, Нонсо Анози, Джеймс Бэдж Дэйл, Бен Брэй, Энн Опеншоу, Питер Гиргес

О фильме: На Аляске потерпел крушение самолет, и оставшиеся в живых пассажиры оказались в плену безлюдной снежной пустыни, где только стая волков скрашивает пейзаж. Люди хотят выжить любой ценой, и теперь им предстоит смертельная схватка...

http//www.kinopoisk.ru/rating/503853.gif http//imdb.snick.ru/ratefor/03/tt1601913.png

Релиз от - http//hqclub.net/images/hqclub.png
Автор рипа: Sky™

Выпущено: США (Universal)
Продолжительность: 01:57:33
Перевод: Профессиональный (полное дублирование) + Оригинальная звуковая дорожка (Английский)
Субтитры: Русские Английские (2 вида) (*.srt, отключаемые)

Файл:
Формат: mkv
Качество: BDRip 720p (источник: http//lostpic.net/images/9c91306e9cffafb1a5062eee37d4276c.png / Blu-Ray Disc [US-Transfer] / 1080p)
Видео: 1280x534 (2.40:1), 23.976 fps, x264@L4.1, crf, ~5887 kbps, 0.36 bit/pixel
Аудио #1: 48 kHz, DTS, 3/2 (L,C,R,l,r) + LFE ch, ~1536 kbps avg (RUS)
Аудио #2: 48 kHz, AC3 Dolby Digital, 3/2 (L,C,R,l,r) + LFE ch, ~640 kbps avg (ENG)
Размер: 6893.93 Mb
http//lostpic.net/images/1b899dddff9c84e7020a856612f5c646.png

http//lostpic.net/thumbs/b352397f4ec1d752b6d630f9aca8c818.png http//lostpic.net/thumbs/b7af11e50b7d3cfe2d45e4f9091d135d.png http//lostpic.net/thumbs/663c568e20d2b9636c36918a23d2423b.png http//lostpic.net/thumbs/830bf1d79e2eec5cb28efe3555d0d365.png
MediaINFO

Полное имя : Shvatka.2011.BDRip.720p.H264.DTS.AC3.-HQCLUB.mkv
Формат : Matroska
Версия формата : Version 2
Размер файла : 6,73 Гбайт
Продолжительность : 1 ч. 57 м.
Общий поток : 8200 Кбит/сек
Дата кодирования : UTC 2012-05-08 04:24:57
Программа кодирования : mkvmerge v4.9.1 ('Ich will') сборка от Jul 11 2011 23:53:15
Библиотека кодирования : libebml v1.2.1 + libmatroska v1.1.1

Видео
Идентификатор : 1
Формат : AVC
Формат/Информация : Advanced Video Codec
Профиль формата : High@L4.1
Параметр CABAC формата : Да
Параметр ReFrames формата : 9 кадров
Идентификатор кодека : V_MPEG4/ISO/AVC
Продолжительность : 1 ч. 57 м.
Битрейт : 5887 Кбит/сек
Ширина : 1280 пикселей
Высота : 534 пикселя
Соотношение сторон : 2,40:1
Частота кадров : 23,976 кадра/сек
Цветовое пространство : YUV
Субдискретизация насыщенности : 4:2:0
Битовая глубина : 8 бит
Тип развёртки : Прогрессивная
Бит/(Пиксели*Кадры) : 0.359
Размер потока : 4,83 Гбайт (72%)
Заголовок : Схватка / The Grey [US-Transfer] (2011) BDRip 720p | HQCLUB
Библиотека кодирования : x264 core 120 r2164 da19765
Настройки программы : cabac=1 / ref=9 / deblock=1:-3:-3 / analyse=0x3:0x113 / me=umh / subme=11 / psy=1 / psy_rd=1.05:0.15 / mixed_ref=1 / me_range=32 / chroma_me=1 / trellis=2 / 8x8dct=1 / cqm=0 / deadzone=21,11 / fast_pskip=1 / chroma_qp_offset=-3 / threads=12 / sliced_threads=0 / nr=0 / decimate=1 / interlaced=0 / bluray_compat=0 / constrained_intra=0 / bframes=9 / b_pyramid=2 / b_adapt=2 / b_bias=0 / direct=1 / weightb=1 / open_gop=0 / weightp=2 / keyint=250 / keyint_min=25 / scenecut=40 / intra_refresh=0 / rc=crf / mbtree=0 / crf=20.0 / qcomp=0.60 / qpmin=10 / qpmax=51 / qpstep=4 / ip_ratio=1.40 / pb_ratio=1.30 / aq=1:0.90
Язык : English
Default : Да
Forced : Нет

Аудио #1
Идентификатор : 2
Формат : DTS
Формат/Информация : Digital Theater Systems
Идентификатор кодека : A_DTS
Продолжительность : 1 ч. 57 м.
Вид битрейта : Постоянный
Битрейт : 1510 Кбит/сек
Каналы : 6 каналов
Расположение каналов : Front: L C R, Side: L R, LFE
Частота : 48,0 КГц
Битовая глубина : 24 бит
Метод сжатия : С потерями
Размер потока : 1,24 Гбайт (18%)
Заголовок : Дубляж (RUS BD) DTS 5.1 @ 1536 kbps
Язык : Russian
Default : Да
Forced : Да

Аудио #2
Идентификатор : 3
Формат : AC-3
Формат/Информация : Audio Coding 3
Расширение режима : CM (complete main)
Параметр Endianness формата : Big
Идентификатор кодека : A_AC3
Продолжительность : 1 ч. 57 м.
Вид битрейта : Постоянный
Битрейт : 640 Кбит/сек
Каналы : 6 каналов
Расположение каналов : Front: L C R, Side: L R, LFE
Частота : 48,0 КГц
Битовая глубина : 16 бит
Метод сжатия : С потерями
Размер потока : 538 Мбайт (8%)
Заголовок : Оригинал AC3 5.1 @ 640 kbps
Язык : English
Default : Нет
Forced : Да

Текст #1
Идентификатор : 4
Формат : UTF-8
Идентификатор кодека : S_TEXT/UTF8
Идентификатор кодека/Информация : UTF-8 Plain Text
Заголовок : Full
Язык : Russian
Default : Нет
Forced : Да

Текст #2
Идентификатор : 5
Формат : UTF-8
Идентификатор кодека : S_TEXT/UTF8
Идентификатор кодека/Информация : UTF-8 Plain Text
Заголовок : Full
Язык : English
Default : Нет
Forced : Да

Текст #3
Идентификатор : 6
Формат : UTF-8
Идентификатор кодека : S_TEXT/UTF8
Идентификатор кодека/Информация : UTF-8 Plain Text
Заголовок : SDH
Язык : English
Default : Да
Forced : Да

Меню
00:00:00.000 : en:00:00:00.000
00:07:24.861 : en:00:07:24.861
00:11:51.836 : en:00:11:51.836
00:18:09.505 : en:00:18:09.505
00:23:58.729 : en:00:23:58.729
00:31:04.821 : en:00:31:04.821
00:35:47.604 : en:00:35:47.604
00:43:47.667 : en:00:43:47.667
00:47:26.427 : en:00:47:26.427
00:51:14.655 : en:00:51:14.655
00:59:22.434 : en:00:59:22.434
01:04:24.069 : en:01:04:24.069
01:11:49.472 : en:01:11:49.472
01:15:12.299 : en:01:15:12.299
01:20:10.931 : en:01:20:10.931
01:24:33.694 : en:01:24:33.694
01:33:51.334 : en:01:33:51.334
01:39:18.661 : en:01:39:18.661
01:41:28.374 : en:01:41:28.374
01:49:40.032 : en:01:49:40.032

log

---[NoImage] x264 [info]: frame I:952 Avg QP:19.22 size: 92466
---[NoImage] x264 [info]: frame P:33429 Avg QP:20.23 size: 46897
---[NoImage] x264 [info]: frame B:134711 Avg QP:23.46 size: 27299
---[NoImage] x264 [info]: consecutive B-frames: 2.5% 1.8% 4.9% 11.0% 13.1% 42.1% 7.5% 4.6% 6.1% 6.5%
---[NoImage] x264 [info]: mb I I16..4: 13.0% 73.7% 13.3%
---[NoImage] x264 [info]: mb P I16..4: 0.8% 20.8% 1.4% P16..4: 25.5% 31.5% 9.4% 0.0% 0.0% skip:10.6%
---[NoImage] x264 [info]: mb B I16..4: 0.1% 7.1% 0.2% B16..8: 38.4% 18.9% 4.0% direct: 8.1% skip:23.4% L0:46.9% L1:45.1% BI: 8.0%
---[NoImage] x264 [info]: 8x8 transform intra:93.0% inter:60.2%
---[NoImage] x264 [info]: coded y,uvDC,uvAC intra: 97.1% 75.3% 45.7% inter: 41.2% 19.7% 1.1%
---[NoImage] x264 [info]: i16 v,h,dc,p: 14% 6% 30% 50%
---[NoImage] x264 [info]: i8 v,h,dc,ddl,ddr,vr,hd,vl,hu: 8% 6% 15% 10% 13% 11% 13% 10% 13%
---[NoImage] x264 [info]: i4 v,h,dc,ddl,ddr,vr,hd,vl,hu: 16% 5% 7% 9% 14% 12% 13% 10% 13%
---[NoImage] x264 [info]: i8c dc,h,v,p: 41% 27% 16% 16%
---[NoImage] x264 [info]: Weighted P-Frames: Y:24.0% UV:16.3%
---[NoImage] x264 [info]: ref P L0: 37.3% 7.6% 19.1% 9.3% 7.9% 6.0% 5.5% 3.2% 3.1% 0.9% 0.1%
---[NoImage] x264 [info]: ref B L0: 59.9% 15.5% 9.4% 5.3% 4.1% 3.4% 1.8% 0.5%
---[NoImage] x264 [info]: ref B L1: 88.2% 11.8%
---[NoImage] x264 [info]: kb/s:6049.65

Ссылки для скачивания:

http//bt.hqclub.net/files/ok.png Торрент: Схватка / The Grey [US-Transfer] (2011) BDRip 720p

Лучшая онлайн игра!


Публикация материалов сайта на сторонних ресурсах возможна только в неизменном виде.


Обсудить релиз на форуме

Вас также может заинтересовать:


  • 5
 (Голосов: 5)


Распечатать новость на принтере Боевик, Триллер, Драма, Приключения
Обновлено: 13.05.2012 - 00:00