Вас Приветствует Релиз-группа HQCLUB


Помощь ресурсу, очень ВАЖНО!!!



.


WELCOME
Добро пожаловать в наше интернет - сообщество!

Всех нас объединяет одна страсть - страсть к высококачественному кино. А это наш сайт. Ежедневно здесь мы публикуем десятки качественных, свежих, а порой и эксклюзивных релизов, которые Вы можете скачать совершенно бесплатно и без каких-либо регистраций. Посему рекомендуем Вам добавить HQClub себе в закладки, а также подписаться на нашу ленту новостей, чтобы всегда быть в курсе всех событий. Ну а если Вы такой же синий фил, как и мы, то милости просим на наш форум. И в заключение, попробуйте зарегистрироваться, ведь не так это и сложно и займет всего лишь пару минут! Вот увидите, Вам у нас понравится и Вы вольетесь в наш дружный коллектив! Ну а пока - осматривайтесь = )
Мы рады Вам !





Денежный поезд / Money Train (1995) BDRip-AVC

Оформил: Elheym | 25 августа 2014 - 12:39:52 | Комментариев: 1 | Обращений: 901 {bookmarks_news}

http//lostpic.net/images/e39a4e78df501e754b83d50406803f11.jpg

Информация о фильме:
Название: Денежный поезд
Оригинальное название: Money Train
Год выхода: 1995
Жанр: боевик, триллер, драма, комедия
Режиссер: Джозеф Рубин
В ролях: Уэсли Снайпс, Вуди Харрельсон, Дженнифер Лопез, Роберт Блейк, Крис Купер, Джо Грифази, Скотт Сауэрс, Скипп Саддат, Винсент Лареска, Нельсон Васкес, Винсент Патрик

О фильме: Два сводных брата, белый и чернокожий, с детства мечтавшие лишь об одном — разбогатеть, задумывают дерзкое ограбление. Цель налетчиков — поезд метро, каждую ночь перевозящий миллионы по тоннелям нью — йоркской подземки. Только два обстоятельства останавливают их: они оба полицейские, а поезд находится под личной охраной их босса. Но соблазн слишком велик, да и вредному боссу, накануне уволившему их со службы, насолить очень уж хочется, и вот — в новогоднюю ночь пара новоявленных грабителей решает осуществить то, о чем они грезили всю жизнь — угнать поезд и стать миллионерами…

«Get on, or GET OUT THE WAY!»



http//rating.kinopoisk.ru/4345.gif http//tracker.0day.kiev.ua/imdb/imdb_tt0113845.gif

Релиз от - http//hqclub.net/images/hqclub.png
Автор рипа: Elheym

Выпущено: США, Columbia Pictures, Peters Entertainment
Продолжительность: 1:49:58
Перевод: Профессиональный (полное дублирование) + Профессиональный (многоголосый, закадровый) |R5| + Оригинал (английский)
Субтитры: русские (полные), английские (полные SDH)
Главы: присутствуют, сохранены оригинальные

Дополнительные аудиодорожки:
+ Профессиональный (многоголосый, закадровый), Первый канал
+ Авторский (одноголосый, закадровый), Живов
+ Авторский (одноголосый, закадровый), Санаев

Файл:
Формат: MKV
Качество: BDRip-AVC (источник: http//lostpic.net/images/20a38122bcc5994b3cdae6e4b4b0.png / Blu-ray Disc / 1080p)
Видео: 1024x426 (2.40:1), 23.976 fps, MPEG-4 AVC, ~2990 kbps avg, 0.286 bit/pixel
Аудио #1: 48 kHz, AC3 Dolby Digital, 3/2 (L,C,R,l,r) + LFE ch, ~384 kbps (DUB)
Аудио #2: 48 kHz, AC3 Dolby Digital, 2/0 (L,R) ch, ~192.00 kbps (MVO.R5)
Аудио #3: 48 kHz, AC3 Dolby Digital, 3/2 (L,C,R,l,r) + LFE ch, ~384 kbps (ENG)
Аудио #4: 48 kHz, AC3 Dolby Digital, 2/0 (L,R) ch, ~192.00 kbps (MVO.PERVYJ.KANAL) (отдельно)
Аудио #5: 48 kHz, AC3 Dolby Digital, 3/2 (L,C,R,l,r) + LFE ch, ~384 kbps (AVO.ZHIVOV) (отдельно)
Аудио #6: 48 kHz, AC3 Dolby Digital, 3/2 (L,C,R,l,r) + LFE ch, ~384 kbps (AVO.SANAEV) (отдельно)
Размер: 3.03 GB
Сэмпл: скачать

http//lostpic.net/thumbs_images/1/7/c/17ca4aa2df3c9a4c3dba20dca3355a46.png http//lostpic.net/thumbs_images/1/1/1/1115cb89ac646a0a8c5bc2775bca5116.png http//lostpic.net/thumbs_images/3/3/c/33cfe5891fd89d32a8d7a4e00bb5ddc0.png http//lostpic.net/thumbs_images/0/9/0/090fe98086914c3e416f64060cbd98ea.png http//lostpic.net/thumbs_images/1/e/a/1eaf730f991d55c9628c79375f5f73a9.png http//lostpic.net/thumbs_images/2/4/9/2979912ae70b16da3436c9628d6278.png

"MediaInfo"

Уникальный идентификатор : 244230985449810841788110471801204364340 (0xB7BD2D443D441F14AF7EDCCAC1EBD434)
Полное имя : Money.Train.1995.TRIPLE.BDRip-AVC.x264.AC3.-HQCLUB.mkv
Формат : Matroska
Версия формата : Version 2
Размер файла : 3,03 Гбайт
Продолжительность : 1 ч. 49 м.
Общий поток : 3951 Кбит/сек
Дата кодирования : UTC 2014-08-25 07:55:02
Программа кодирования : mkvmerge v5.2.0 ('I can't explain') built on Dec 18 2011 18:12:03
Библиотека кодирования : libebml v1.2.3 + libmatroska v1.3.0

Видео
Идентификатор : 1
Формат : AVC
Формат/Информация : Advanced Video Codec
Профиль формата : High@L4.1
Параметр CABAC формата : Да
Параметр ReFrames формата : 15 кадров
Идентификатор кодека : V_MPEG4/ISO/AVC
Продолжительность : 1 ч. 49 м.
Битрейт : 2990 Кбит/сек
Ширина : 1024 пикселя
Высота : 426 пикселей
Соотношение сторон : 2,40:1
Режим частоты кадров : Постоянный
Частота кадров : 23,976 кадра/сек
Цветовое пространство : YUV
Субдискретизация насыщенности : 4:2:0
Битовая глубина : 8 бит
Тип развёртки : Прогрессивная
Бит/(Пиксели*Кадры) : 0.286
Размер потока : 2,24 Гбайт (74%)
Заголовок : Денежный поезд / Money Train (1995) BDRip-AVC by HQCLUB [Elheym]
Библиотека кодирования : x264 core 142 r2453 ea0ca51
Настройки программы : cabac=1 / ref=15 / deblock=1:-3:-2 / analyse=0x3:0x113 / me=umh / subme=11 / psy=1 / psy_rd=1.06:0.00 / mixed_ref=1 / me_range=32 / chroma_me=1 / trellis=2 / 8x8dct=1 / cqm=0 / deadzone=21,11 / fast_pskip=1 / chroma_qp_offset=-4 / threads=6 / lookahead_threads=1 / sliced_threads=0 / nr=0 / decimate=1 / interlaced=0 / bluray_compat=0 / constrained_intra=0 / bframes=9 / b_pyramid=2 / b_adapt=2 / b_bias=0 / direct=3 / weightb=1 / open_gop=0 / weightp=2 / keyint=240 / keyint_min=23 / scenecut=40 / intra_refresh=0 / rc_lookahead=40 / rc=2pass / mbtree=1 / bitrate=2990 / ratetol=1.0 / qcomp=0.60 / qpmin=10 / qpmax=69 / qpstep=4 / cplxblur=20.0 / qblur=0.5 / vbv_maxrate=50000 / vbv_bufsize=62500 / nal_hrd=none / filler=0 / ip_ratio=1.40 / aq=1:0.90
Язык : English
Default : Да
Forced : Нет

Аудио #1
Идентификатор : 2
Формат : AC-3
Формат/Информация : Audio Coding 3
Расширение режима : CM (complete main)
Параметр Endianness формата : Big
Идентификатор кодека : A_AC3
Продолжительность : 1 ч. 49 м.
Вид битрейта : Постоянный
Битрейт : 384 Кбит/сек
Каналы : 6 каналов
Расположение каналов : Front: L C R, Side: L R, LFE
Частота : 48,0 КГц
Битовая глубина : 16 бит
Метод сжатия : С потерями
Размер потока : 302 Мбайт (10%)
Заголовок : АС3 5.1 @ 384 kbps - Dub
Язык : Russian
Default : Нет
Forced : Нет

Аудио #2
Идентификатор : 3
Формат : AC-3
Формат/Информация : Audio Coding 3
Расширение режима : CM (complete main)
Параметр Endianness формата : Big
Идентификатор кодека : A_AC3
Продолжительность : 1 ч. 49 м.
Вид битрейта : Постоянный
Битрейт : 192 Кбит/сек
Каналы : 2 канала
Расположение каналов : Front: L R
Частота : 48,0 КГц
Битовая глубина : 16 бит
Метод сжатия : С потерями
Размер потока : 151 Мбайт (5%)
Заголовок : АС3 2.0 @ 192 kbps - MVO R5
Язык : Russian
Default : Нет
Forced : Нет

Аудио #3
Идентификатор : 4
Формат : AC-3
Формат/Информация : Audio Coding 3
Расширение режима : CM (complete main)
Параметр Endianness формата : Big
Идентификатор кодека : A_AC3
Продолжительность : 1 ч. 49 м.
Вид битрейта : Постоянный
Битрейт : 384 Кбит/сек
Каналы : 6 каналов
Расположение каналов : Front: L C R, Side: L R, LFE
Частота : 48,0 КГц
Битовая глубина : 16 бит
Метод сжатия : С потерями
Размер потока : 302 Мбайт (10%)
Заголовок : АС3 5.1 @ 384 kbps - Original
Язык : English
Default : Нет
Forced : Нет

Текст #1
Идентификатор : 5
Формат : UTF-8
Идентификатор кодека : S_TEXT/UTF8
Идентификатор кодека/Информация : UTF-8 Plain Text
Заголовок : Full
Язык : Russian
Default : Нет
Forced : Нет

Текст #2
Идентификатор : 6
Формат : UTF-8
Идентификатор кодека : S_TEXT/UTF8
Идентификатор кодека/Информация : UTF-8 Plain Text
Заголовок : Full SDH
Язык : English
Default : Нет
Forced : Нет

Меню
00:00:00.000 : :Chapter 01
00:05:49.140 : :Chapter 02
00:12:44.346 : :Chapter 03
00:17:12.281 : :Chapter 04
00:25:01.666 : :Chapter 05
00:31:20.169 : :Chapter 06
00:40:27.550 : :Chapter 07
00:46:52.392 : :Chapter 08
00:50:31.862 : :Chapter 09
00:56:01.691 : :Chapter 10
01:02:50.808 : :Chapter 11
01:11:31.704 : :Chapter 12
01:14:40.934 : :Chapter 13
01:22:01.916 : :Chapter 14
01:27:19.317 : :Chapter 15
01:39:45.646 : :Chapter 16

"x264 log"

x264 [info]: frame I:1109 Avg QP:15.86 size: 67050
x264 [info]: frame P:39990 Avg QP:18.59 size: 26887
x264 [info]: frame B:117109 Avg QP:20.13 size: 11231

x264 [info]: consecutive B-frames: 4.4% 5.4% 10.5% 20.4% 19.7% 30.6% 5.5% 2.0% 0.8% 0.6%

x264 [info]: ref P L0: 39.6% 8.8% 16.6% 6.9% 5.9% 4.3% 4.0% 2.3% 2.2% 1.8% 1.7% 1.5% 1.5% 1.3% 1.4% 0.3%
x264 [info]: ref B L0: 68.3% 11.9% 5.9% 3.3% 2.4% 2.1% 1.6% 1.0% 0.8% 0.8% 0.7% 0.6% 0.4% 0.2%
x264 [info]: ref B L1: 92.7% 7.3%


Ссылки для скачивания:

http//bt.hqclub.net/files/ok.png Торрент: Денежный поезд / Money Train (1995) BDRip-AVC

Лучшая онлайн игра!


Публикация материалов сайта на сторонних ресурсах возможна только в неизменном виде.


Обсудить релиз на форуме

Вас также может заинтересовать:


  • 5
 (Голосов: 1)


Распечатать новость на принтере Боевик, Триллер, Драма, Комедия
Обновлено: 26.08.2014 - 18:36

КОММЕНТАРИИ

 №1. ru4lan

Статус: Кинокритик | Новостей: 0 | Комментариев: 2736
ru4lan обновлюсь
~~~

16.09.2014 - 20:43   цитировать