Вас Приветствует Релиз-группа HQCLUB


Помощь ресурсу, очень ВАЖНО!!!



.


WELCOME
Добро пожаловать в наше интернет - сообщество!

Всех нас объединяет одна страсть - страсть к высококачественному кино. А это наш сайт. Ежедневно здесь мы публикуем десятки качественных, свежих, а порой и эксклюзивных релизов, которые Вы можете скачать совершенно бесплатно и без каких-либо регистраций. Посему рекомендуем Вам добавить HQClub себе в закладки, а также подписаться на нашу ленту новостей, чтобы всегда быть в курсе всех событий. Ну а если Вы такой же синий фил, как и мы, то милости просим на наш форум. И в заключение, попробуйте зарегистрироваться, ведь не так это и сложно и займет всего лишь пару минут! Вот увидите, Вам у нас понравится и Вы вольетесь в наш дружный коллектив! Ну а пока - осматривайтесь = )
Мы рады Вам !





Форсаж 5 / Fast Five (2011) BDRip 720p

Оформил: Elheym | 4 июня 2015 - 21:26:01 | Комментариев: 1 | Обращений: 529 {bookmarks_news}

http//lostpic.net/orig_images/0/a/6/0a61fd44285b667427b5b676c25895.png

Информация о фильме
Название: Форсаж 5
Оригинальное название: Fast Five
Год выхода: 2011
Жанр: Боевик, Триллер, Драма, Криминал
В ролях: Вин Дизель, Пол Уокер, Джордана Брюстер, Тайриз Гибсон, Лудакрис, Эльза Патаки, Галь Гадот, Тего Калдерон, Дон Омар, Мэтт Шульце
Режиссёр: Джастин Лин / Justin Lin

О фильме: Бывший полицейский Брайан О`Коннер вместе с бывалым лихачом Домиником Торетто совсем немного увлеклись жизнью вне закона. После того, как Брайан и Миа Торетто освободили Доминика, они не рискуют долго задерживаться на одном месте, так как являются желанной целью порядком недовольных копов.

«Всё решает скорость, всё решает команда»



User Rating: 7.573 (96 123 votes)
IMDB: 7.30 (249 426 votes)

Релиз от - http//hqclub.net/images/hqclub.png
Автор рипа: Rensler

Выпущено: США, Dark Side Productions
Продолжительность: 02:10:21
Перевод:
• Профессиональный (полное дублирование) BD CEE
Оригинальная аудиодорожка: Английская
Субтитры: Русские (форсированные, полные), Английские (SDH)
Главы: Сохранены чаптеры с оригинального Blu-ray Disc

Файл:
Формат: MKV
Качество: BDRip 720p (источник: https//hdclub.org/dox/sitebutton_tracker.hdclub.com.ua1.gif / Blu-ray CEE 1080p AVC DD5.1)
Видео: 1280x544 (2,35:1) at 23.976, MPEG-4 AVC ~ 7248 kbps avg, 0.434 bit/pixel
Аудио#1: 48 kHz/16-bit, AC3 Dolby Digital, 3/2 (L,C,R,l,r) + LFE ch, ~ 640 kbps avg | RUS
Аудио#2: 48 kHz/16-bit, AC3 Dolby Digital, 3/2 (L,C,R,l,r) + LFE ch, ~ 640 kbps avg | ENG
Скачать: Семпл

Размер: 7,76 GB (DVD-9)

"MediaInfo"

Уникальный идентификатор : 181058455483629195035932845544885800339 (0x8836971173A57D7C9EE2E30F28C54D93)
Полное имя : K:\DVD Ripper\Rip' Release HQCLUB\Forsazh.5.2011.720p.BluRay.Rus.Eng.-HQCLUB [Rensler].mkv
Формат : Matroska
Версия формата : Version 4 / Version 2
Размер файла : 7,77 Гбайт
Продолжительность : 2 ч. 10 м.
Общий поток : 8530 Кбит/сек
Название фильма : Форсаж 5 / Fast 5 (2011) Blu-ray 720p
Дата кодирования : UTC 2010-02-22 21:41:31
Программа кодирования : mkvmerge v5.8.0 ('No Sleep / Pillow') built on Sep 30 2012 10:57:14
Библиотека кодирования : libebml v1.3.0 + libmatroska v1.4.0
Attachements : Fast Five.png

Видео
Идентификатор : 1
Формат : AVC
Формат/Информация : Advanced Video Codec
Профиль формата : High@L4.1
Параметр CABAC формата : Да
Параметр ReFrames формата : 11 кадров
Идентификатор кодека : V_MPEG4/ISO/AVC
Продолжительность : 2 ч. 10 м.
Битрейт : 7248 Кбит/сек
Ширина : 1280 пикселей
Высота : 544 пикселя
Соотношение сторон : 2,35:1
Режим частоты кадров : Постоянный
Частота кадров : 23,976 кадра/сек
Цветовое пространство : YUV
Субдискретизация насыщенности : 4:2:0
Битовая глубина : 8 бит
Тип развёртки : Прогрессивная
Бит/(Пиксели*Кадры) : 0.434
Размер потока : 6,45 Гбайт (83%)
Заголовок : Release by Rensler
Библиотека кодирования : x264 core 146 r2538 121396c
Настройки программы : cabac=1 / ref=11 / deblock=1:-3:-3 / analyse=0x3:0x113 / me=umh / subme=11 / psy=1 / psy_rd=1.20:0.00 / mixed_ref=1 / me_range=48 / chroma_me=1 / trellis=2 / 8x8dct=1 / cqm=0 / deadzone=21,11 / fast_pskip=0 / chroma_qp_offset=-2 / threads=3 / lookahead_threads=1 / sliced_threads=0 / nr=0 / decimate=0 / interlaced=0 / bluray_compat=0 / constrained_intra=0 / bframes=11 / b_pyramid=2 / b_adapt=2 / b_bias=0 / direct=3 / weightb=1 / open_gop=0 / weightp=2 / keyint=240 / keyint_min=23 / scenecut=40 / intra_refresh=0 / rc_lookahead=60 / rc=2pass / mbtree=0 / bitrate=7248 / ratetol=1.0 / qcomp=0.80 / qpmin=0 / qpmax=69 / qpstep=4 / cplxblur=20.0 / qblur=0.5 / vbv_maxrate=50000 / vbv_bufsize=62500 / nal_hrd=none / filler=0 / ip_ratio=1.40 / pb_ratio=1.30 / aq=2:0.85
Язык : Russian
Default : Да
Forced : Нет

Аудио #1
Идентификатор : 2
Формат : AC-3
Формат/Информация : Audio Coding 3
Расширение режима : CM (complete main)
Параметр Endianness формата : Big
Идентификатор кодека : A_AC3
Продолжительность : 2 ч. 10 м.
Вид битрейта : Постоянный
Битрейт : 640 Кбит/сек
Каналы : 6 каналов
Расположение каналов : Front: L C R, Side: L R, LFE
Частота : 48,0 КГц
Битовая глубина : 16 бит
Метод сжатия : С потерями
Размер потока : 597 Мбайт (8%)
Заголовок : BD CEE
Язык : Russian
Default : Да
Forced : Нет

Аудио #2
Идентификатор : 3
Формат : AC-3
Формат/Информация : Audio Coding 3
Расширение режима : CM (complete main)
Параметр Endianness формата : Big
Идентификатор кодека : A_AC3
Продолжительность : 2 ч. 10 м.
Вид битрейта : Постоянный
Битрейт : 640 Кбит/сек
Каналы : 6 каналов
Расположение каналов : Front: L C R, Side: L R, LFE
Частота : 48,0 КГц
Битовая глубина : 16 бит
Метод сжатия : С потерями
Размер потока : 597 Мбайт (8%)
Заголовок : Original
Язык : English
Default : Нет
Forced : Нет

Текст #1
Идентификатор : 4
Формат : UTF-8
Идентификатор кодека : S_TEXT/UTF8
Идентификатор кодека/Информация : UTF-8 Plain Text
Заголовок : Forced
Язык : Russian
Default : Да
Forced : Нет

Текст #2
Идентификатор : 5
Формат : UTF-8
Идентификатор кодека : S_TEXT/UTF8
Идентификатор кодека/Информация : UTF-8 Plain Text
Заголовок : Full
Язык : Russian
Default : Нет
Forced : Нет

Текст #3
Идентификатор : 6
Формат : UTF-8
Идентификатор кодека : S_TEXT/UTF8
Идентификатор кодека/Информация : UTF-8 Plain Text
Заголовок : SDH
Язык : English
Default : Нет
Forced : Нет

Меню
00:00:00.000 : en:Chapter 01
00:07:45.715 : en:Chapter 02
00:17:29.465 : en:Chapter 03
00:23:01.838 : en:Chapter 04
00:28:21.574 : en:Chapter 05
00:34:55.635 : en:Chapter 06
00:40:46.318 : en:Chapter 07
00:48:41.585 : en:Chapter 08
00:55:20.317 : en:Chapter 09
01:03:09.952 : en:Chapter 10
01:10:44.657 : en:Chapter 11
01:18:25.867 : en:Chapter 12
01:22:36.201 : en:Chapter 13
01:27:58.731 : en:Chapter 14
01:31:53.424 : en:Chapter 15
01:39:13.322 : en:Chapter 16
01:47:00.747 : en:Chapter 17
01:54:50.133 : en:Chapter 18
01:59:15.231 : en:Chapter 19
02:03:24.396 : en:Chapter 20
02:10:21.021 : en:Chapter 21

""log@x.264""

x264 [info]: frame I:1813 Avg QP:14.82 size:147739
x264 [info]: frame P:43562 Avg QP:16.49 size: 61531
x264 [info]: frame B:142147 Avg QP:18.71 size: 29100
x264 [info]: consecutive B-frames: 3.4% 4.0% 10.2% 19.1% 14.9% 37.6% 5.6% 1.3% 1.2% 1.1% 0.9% 0.8%
x264 [info]: ref P L0: 47.9% 6.7% 16.1% 8.3% 6.0% 4.5% 3.7% 2.2% 1.8% 1.5% 1.1% 0.2% 0.0%



http//lostpic.net/thumbs_images/f/f/b/ffb983c1443984f3c3bf5d632f0400.jpg http//lostpic.net/thumbs_images/4/c/9/4c9d0f5c09143a82d4694c6af8a0db01.jpg http//lostpic.net/thumbs_images/7/9/f/79f88459d6e0073eca706eb676741769.jpg
http//lostpic.net/thumbs_images/1/5/1/151aa638d29e9cd46e315a7cf94625.jpg http//lostpic.net/thumbs_images/c/4/f/c4f6b3e97e444c9aadcf74c7d0d05a.jpg http//lostpic.net/thumbs_images/5/5/0/55019fae71dc628fc2d824decafab541.jpg

Ссылки для скачивания:
http//bt.hqclub.net/files/ok.png Торрент: Форсаж 5 / Fast Five (2011) BDRip 720p



Лучшая онлайн игра!


Публикация материалов сайта на сторонних ресурсах возможна только в неизменном виде.


Обсудить релиз на форуме

Вас также может заинтересовать:


  • 5
 (Голосов: 3)


Распечатать новость на принтере Боевик, Триллер, Драма, Криминал

КОММЕНТАРИИ

 №1. LeonidMikhalin

Статус: Зритель | Новостей: 0 | Комментариев: 182
Беру

6.10.2016 - 22:57   цитировать