Вас Приветствует Релиз-группа HQCLUB


Помощь ресурсу, очень ВАЖНО!!!



.


WELCOME
Добро пожаловать в наше интернет - сообщество!

Всех нас объединяет одна страсть - страсть к высококачественному кино. А это наш сайт. Ежедневно здесь мы публикуем десятки качественных, свежих, а порой и эксклюзивных релизов, которые Вы можете скачать совершенно бесплатно и без каких-либо регистраций. Посему рекомендуем Вам добавить HQClub себе в закладки, а также подписаться на нашу ленту новостей, чтобы всегда быть в курсе всех событий. Ну а если Вы такой же синий фил, как и мы, то милости просим на наш форум. И в заключение, попробуйте зарегистрироваться, ведь не так это и сложно и займет всего лишь пару минут! Вот увидите, Вам у нас понравится и Вы вольетесь в наш дружный коллектив! Ну а пока - осматривайтесь = )
Мы рады Вам !





Форсаж 6 / Furious 6 (2013) BDRip 720p

Оформил: Elheym | 4 июня 2015 - 21:36:04 | Комментариев: 1 | Обращений: 669 {bookmarks_news}

http//lostpic.net/orig_images/3/1/9/319bb2ff7703f8b3ebba101d93951c.png

Информация о фильме
Название: Форсаж 6
Оригинальное название: Furious 6
Год выхода: 2013
Жанр: Боевик, Триллер, Драма, Криминал
В ролях: Вин Дизель, Пол Уокер, Дуэйн Джонсон, Мишель Родригес, Люк Эванс, Тайриз Гибсон, Лудакрис, Санг Кенг, Галь Гадот, Джордана Брюстер
Режиссёр: Джастин Лин / Justin Lin

О фильме: После того как Доминик и Брайн побывали в Рио, где они ограбили и свергли империю вора в законе, их команда получила 100 миллионов, и наши герои оказались разбросаны по всему миру. Но их привычка вечно жить в бегах не даёт им покоя. Между тем, Хоббс отслеживал организацию смертельно опасных наёмников-водителей по двенадцати странам. Единственный способ остановить эту криминальную группу — это превзойти их на улицах, поэтому Хоббс просит Доминика собрать его элитную команду в Лондоне. За это он обещает полное помилование для Доминика и его друзей, чтобы они смогли наконец вернуться домой к своей семье.

«Все дороги принадлежат им»



User Rating: 7.002 (76 957 votes)
IMDB: 7.20 (254 903 votes)

Релиз от - http//hqclub.net/images/hqclub.png
Автор рипа: Rensler

Выпущено: США / Etalon film, Original Film
Продолжительность: 02:11:02
Перевод:
• Профессиональный (полное дублирование) BD CEE
Оригинальная аудиодорожка: Английская
Субтитры: Русские (форсированные, полные), Английские (SDH)
Главы: Сохранены чаптеры с оригинального Blu-ray Disc

Файл:
Формат: MKV
Качество: BDRip 720p (источник: https//hdclub.org/dox/sitebutton_tracker.hdclub.com.ua1.gif / Blu-ray CEE 1080p AVC DD5.1)
Видео: 1280x544 (2,35:1) at 23.976, MPEG-4 AVC ~ 7203 kbps avg, 0.431 bit/pixel
Аудио#1: 48 kHz/16-bit, AC3 Dolby Digital, 3/2 (L,C,R,l,r) + LFE ch, ~ 640 kbps avg | RUS
Аудио#2: 48 kHz/16-bit, AC3 Dolby Digital, 3/2 (L,C,R,l,r) + LFE ch, ~ 640 kbps avg | ENG
Скачать: Семпл

Размер: 7,76 GB (DVD-9)

"MediaInfo"

Уникальный идентификатор : 215559610190534189258633607663381314041 (0xA22B45539579EFF2BE9E6148ABB6F9F9)
Полное имя : K:\Rip' Release HQCLUB\Forsazh.6.2013.720p.BluRay.Rus.Eng.-HQCLUB [Rensler].mkv
Формат : Matroska
Версия формата : Version 4 / Version 2
Размер файла : 7,76 Гбайт
Продолжительность : 2 ч. 11 м.
Общий поток : 8482 Кбит/сек
Название фильма : Форсаж 6 / Fast 6 (2011) Blu-ray 720p
Дата кодирования : UTC 2010-02-22 21:41:31
Программа кодирования : mkvmerge v5.8.0 ('No Sleep / Pillow') built on Sep 30 2012 10:57:14
Библиотека кодирования : libebml v1.3.0 + libmatroska v1.4.0
Attachements : Furious 6.png

Видео
Идентификатор : 1
Формат : AVC
Формат/Информация : Advanced Video Codec
Профиль формата : High@L4.1
Параметр CABAC формата : Да
Параметр ReFrames формата : 11 кадров
Идентификатор кодека : V_MPEG4/ISO/AVC
Продолжительность : 2 ч. 11 м.
Битрейт : 7203 Кбит/сек
Ширина : 1280 пикселей
Высота : 544 пикселя
Соотношение сторон : 2,35:1
Режим частоты кадров : Постоянный
Частота кадров : 23,976 кадра/сек
Цветовое пространство : YUV
Субдискретизация насыщенности : 4:2:0
Битовая глубина : 8 бит
Тип развёртки : Прогрессивная
Бит/(Пиксели*Кадры) : 0.431
Размер потока : 6,44 Гбайт (83%)
Заголовок : Release by Rensler
Библиотека кодирования : x264 core 146 r2538 121396c
Настройки программы : cabac=1 / ref=11 / deblock=1:-3:-3 / analyse=0x3:0x113 / me=umh / subme=11 / psy=1 / psy_rd=1.03:0.00 / mixed_ref=1 / me_range=48 / chroma_me=1 / trellis=2 / 8x8dct=1 / cqm=0 / deadzone=21,11 / fast_pskip=0 / chroma_qp_offset=-2 / threads=3 / lookahead_threads=1 / sliced_threads=0 / nr=0 / decimate=0 / interlaced=0 / bluray_compat=0 / constrained_intra=0 / bframes=8 / b_pyramid=2 / b_adapt=2 / b_bias=0 / direct=3 / weightb=1 / open_gop=0 / weightp=2 / keyint=240 / keyint_min=23 / scenecut=40 / intra_refresh=0 / rc_lookahead=60 / rc=2pass / mbtree=0 / bitrate=7203 / ratetol=1.0 / qcomp=0.80 / qpmin=0 / qpmax=69 / qpstep=4 / cplxblur=20.0 / qblur=0.5 / vbv_maxrate=50000 / vbv_bufsize=62500 / nal_hrd=none / filler=0 / ip_ratio=1.40 / pb_ratio=1.30 / aq=2:0.90
Язык : Russian
Default : Да
Forced : Нет

Аудио #1
Идентификатор : 2
Формат : AC-3
Формат/Информация : Audio Coding 3
Расширение режима : CM (complete main)
Параметр Endianness формата : Big
Идентификатор кодека : A_AC3
Продолжительность : 2 ч. 11 м.
Вид битрейта : Постоянный
Битрейт : 640 Кбит/сек
Каналы : 6 каналов
Расположение каналов : Front: L C R, Side: L R, LFE
Частота : 48,0 КГц
Битовая глубина : 16 бит
Метод сжатия : С потерями
Размер потока : 600 Мбайт (8%)
Заголовок : BD CEE
Язык : Russian
Default : Да
Forced : Нет

Аудио #2
Идентификатор : 3
Формат : AC-3
Формат/Информация : Audio Coding 3
Расширение режима : CM (complete main)
Параметр Endianness формата : Big
Идентификатор кодека : A_AC3
Продолжительность : 2 ч. 11 м.
Вид битрейта : Постоянный
Битрейт : 640 Кбит/сек
Каналы : 6 каналов
Расположение каналов : Front: L C R, Side: L R, LFE
Частота : 48,0 КГц
Битовая глубина : 16 бит
Метод сжатия : С потерями
Размер потока : 600 Мбайт (8%)
Заголовок : Original
Язык : English
Default : Нет
Forced : Нет

Текст #1
Идентификатор : 4
Формат : UTF-8
Идентификатор кодека : S_TEXT/UTF8
Идентификатор кодека/Информация : UTF-8 Plain Text
Заголовок : Forced
Язык : Russian
Default : Да
Forced : Нет

Текст #2
Идентификатор : 5
Формат : UTF-8
Идентификатор кодека : S_TEXT/UTF8
Идентификатор кодека/Информация : UTF-8 Plain Text
Заголовок : Full
Язык : Russian
Default : Нет
Forced : Нет

Текст #3
Идентификатор : 6
Формат : UTF-8
Идентификатор кодека : S_TEXT/UTF8
Идентификатор кодека/Информация : UTF-8 Plain Text
Заголовок : SDH
Язык : English
Default : Нет
Forced : Нет

Меню
00:00:00.000 : en:Chapter 01
00:04:21.011 : en:Chapter 02
00:10:19.118 : en:Chapter 03
00:15:35.268 : en:Chapter 04
00:19:18.574 : en:Chapter 05
00:24:32.721 : en:Chapter 06
00:30:23.405 : en:Chapter 07
00:36:28.478 : en:Chapter 08
00:44:01.305 : en:Chapter 09
00:50:50.255 : en:Chapter 10
00:56:54.327 : en:Chapter 11
01:04:54.057 : en:Chapter 12
01:10:14.293 : en:Chapter 13
01:19:13.457 : en:Chapter 14
01:25:41.178 : en:Chapter 15
01:34:53.771 : en:Chapter 16
01:41:48.561 : en:Chapter 17
01:48:31.838 : en:Chapter 18
01:57:48.812 : en:Chapter 19
02:03:04.418 : en:Chapter 20

""log@x.264""

x264 [info]: frame I:2099 Avg QP:14.28 size:154951
x264 [info]: frame P:44450 Avg QP:15.36 size: 62566
x264 [info]: frame B:141969 Avg QP:17.51 size: 27958
x264 [info]: consecutive B-frames: 3.6% 4.4% 10.1% 20.4% 14.3% 39.1% 5.2% 1.4% 1.5%
x264 [info]: ref P L0: 45.7% 6.8% 16.8% 8.6% 6.3% 4.8% 3.9% 2.4% 1.9% 1.5% 1.2% 0.3% 0.0%



http//lostpic.net/thumbs_images/6/3/4/63fb22b094732f8ff5454712ffcb72.jpg http//lostpic.net/thumbs_images/c/5/0/c505453a97723a9440af77862d5f53c2.jpg http//lostpic.net/thumbs_images/8/c/8/8c8d1b7a3fd697ad74dfc56e2bd8eab7.jpg
http//lostpic.net/thumbs_images/f/b/a/fbae7d12eb75e984dc913b33bfe22d.jpg http//lostpic.net/thumbs_images/e/c/c/ecc6ae9890e894028de2e2d26815b439.jpg http//lostpic.net/thumbs_images/1/0/f/10fbe89212714ff32e600c922465e7.jpg

Ссылки для скачивания:
http//bt.hqclub.net/files/ok.png Торрент: Форсаж 6 / Furious 6 (2013) BDRip 720p



Лучшая онлайн игра!


Публикация материалов сайта на сторонних ресурсах возможна только в неизменном виде.


Обсудить релиз на форуме

Вас также может заинтересовать:


  • 5
 (Голосов: 3)


Распечатать новость на принтере Боевик, Триллер, Драма, Криминал

КОММЕНТАРИИ

 №1. LeonidMikhalin

Статус: Зритель | Новостей: 0 | Комментариев: 182
Спасибо, беру в коллекцию. Побольше фильмов в таком качестве.

17.10.2016 - 23:55   цитировать