Вас Приветствует Релиз-группа HQCLUB


Помощь ресурсу, очень ВАЖНО!!!



.


WELCOME
Добро пожаловать в наше интернет - сообщество!

Всех нас объединяет одна страсть - страсть к высококачественному кино. А это наш сайт. Ежедневно здесь мы публикуем десятки качественных, свежих, а порой и эксклюзивных релизов, которые Вы можете скачать совершенно бесплатно и без каких-либо регистраций. Посему рекомендуем Вам добавить HQClub себе в закладки, а также подписаться на нашу ленту новостей, чтобы всегда быть в курсе всех событий. Ну а если Вы такой же синий фил, как и мы, то милости просим на наш форум. И в заключение, попробуйте зарегистрироваться, ведь не так это и сложно и займет всего лишь пару минут! Вот увидите, Вам у нас понравится и Вы вольетесь в наш дружный коллектив! Ну а пока - осматривайтесь = )
Мы рады Вам !





Хитмэн / Hitman [UNRATED] (2007) 720p BDRip

Оформил: DaniLch | 10 октября 2011 - 14:47:20 | Комментариев: 10 | Обращений: 2438 {bookmarks_news}

http//lostpic.net/images/dab1d4de1a4c5597c1445891397189.png

Название: Хитмэн
Оригинальное название: Hitman
Год выхода: 2007
Жанр: боевик, триллер, драма, криминал
Режиссер: Ксавьер Генс / Xavier Gens
В ролях: Тимоти Олифант, Дюгрэй Скотт, Ольга Куриленко, Роберт Нэппер, Ульрих Томсен, Генри Йен Кьюсик, Михаэль Оффей, Кристиан Эриксон, Эрик Эбони, Джо Шеридан

О фильме: Хитмэн был обучен, как высоко профессиональный убийца, чье самое мощное оружие — это хладнокровие и безмерная гордость за свою работу. 47 — это две последние цифры на штрих-коде, вытатуированном на его затылке, а также его единственное имя.
Но охотник становится добычей, когда 47-й оказывается втянутым в политические интриги. Интерпол и русские военные начинают охоту на киллера по всей восточной Европе, в то время как он сам пытается понять, кто его подставил и почему они пытаются вывести его из игры. Но самую большую угрозу для 47-го представляет волнение его совести и незнакомые эмоции, пробудившиеся в нем после встречи с прекрасной девушкой…

http//www.kinopoisk.ru/rating/1001.gif

Релиз от - http//hqclub.net/images/hqclub.png
Автор рипа: DaniLch

Выпущено: http//lostpic.net/images/ac5cb4a618da65239cf7be53b9ab78.gif США http//lostpic.net/images/92e96ea6cf9263c9d051891c5b9d8d7c.gif Франция | 20th Century Fox
Продолжительность: 01:34:14

Источник: Hitman Unrated 2007 Blu-ray CEE 1080p AVC DTS-HD
Контейнер: MKV
Видео: 1280x548 (2.34:1), 23.976 fps, x264@L4.1, crf, ~5577 kbps
Аудио #1: Russian: 48 kHz/24-bit, DTS, 3/2 (L,C,R,l,r) + LFE ch, ~768 kbps |Дубляж, Blu-ray CEE|
Аудио #2: Russian: 48 kHz, AC3 Dolby Digital, 3/2 (L,C,R,l,r) + LFE ch, ~448 kbps |Многоголосый закадровый, Киномания|
Аудио #3: Russian: 48 kHz, AC3 Dolby Digital, 3/2 (L,C,R,l,r) + LFE ch, ~448 kbps |Одноголосый закадровый, Ю.Немахов|
Аудио #4: English: 48 kHz/24-bit, DTS, 3/2 (L,C,R,l,r) + LFE ch, ~1536 kbps
Субтитры: русские, английские
Размер: 5.87 Gb

http//lostpic.net/thumbs/aa8c1b899b165dc4a83e476faf52b28b.png http//lostpic.net/thumbs/8b74bb2901a28322ae1755f6c1a150ae.png http//lostpic.net/thumbs/ef68514358d335375312361476e3ec86.png http//lostpic.net/thumbs/304583067b38d045e7fd25a7591633a0.png

http//bt.hqclub.net/files/ok.png Торрент: Хитмэн / Hitman [UNRATED] (2007) 720p BDRip

MediaInfo
General
Complete name : Hitman.UNRATED.2007.BDRip.720p.H264.DTS.AC3.-HQCLUB.mkv
Format : Matroska
File size : 5.87 GiB
Duration : 1h 34mn
Overall bit rate : 8 915 Kbps
Movie name : 720p BDRip by DaniLch
Encoded date : UTC 2011-08-30 18:37:21
Writing application : mkvmerge v4.9.1 ('Ich will') built on Jul 11 2011 23:53:15
Writing library : libebml v1.2.1 + libmatroska v1.1.1

Video
ID : 1
Format : AVC
Format/Info : Advanced Video Codec
Format profile : High@L4.1
Format settings, CABAC : Yes
Format settings, ReFrames : 9 frames
Codec ID : V_MPEG4/ISO/AVC
Duration : 1h 34mn
Bit rate : 5 577 Kbps
Width : 1 280 pixels
Height : 548 pixels
Display aspect ratio : 2.35:1
Frame rate : 23.976 fps
Color space : YUV
Chroma subsampling : 4:2:0
Bit depth : 8 bits
Scan type : Progressive
Bits/(Pixel*Frame) : 0.332
Stream size : 3.68 GiB (63%)
Title : Hitman [UNRATED] (2007) 720p BDRip
Writing library : x264 core 115 r1995 c1e60b9
Encoding settings : cabac=1 / ref=9 / deblock=1:-3:-3 / analyse=0x3:0x113 / me=umh / subme=10 / psy=1 / psy_rd=1.00:0.00 / mixed_ref=1 / me_range=32 / chroma_me=1 / trellis=2 / 8x8dct=1 / cqm=0 / deadzone=21,11 / fast_pskip=0 / chroma_qp_offset=1 / threads=6 / sliced_threads=0 / nr=0 / decimate=1 / interlaced=0 / bluray_compat=0 / constrained_intra=0 / bframes=6 / b_pyramid=2 / b_adapt=2 / b_bias=0 / direct=3 / weightb=1 / open_gop=0 / weightp=2 / keyint=250 / keyint_min=23 / scenecut=40 / intra_refresh=0 / rc_lookahead=40 / rc=crf / mbtree=0 / crf=16.3 / qcomp=0.60 / qpmin=10 / qpmax=51 / qpstep=4 / vbv_maxrate=50000 / vbv_bufsize=62500 / crf_max=0.0 / nal_hrd=none / ip_ratio=1.40 / pb_ratio=1.30 / aq=1:0.80
Language : English

Audio #1
ID : 2
Format : DTS
Format/Info : Digital Theater Systems
Codec ID : A_DTS
Duration : 1h 34mn
Bit rate mode : Constant
Bit rate : 755 Kbps
Channel(s) : 6 channels
Channel positions : Front: L C R, Side: L R, LFE
Sampling rate : 48.0 KHz
Bit depth : 24 bits
Compression mode : Lossy
Stream size : 509 MiB (8%)
Title : DTS 5.1 @ 768 kbps - Дубляж, Blu-ray CEE
Language : Russian

Audio #2
ID : 3
Format : AC-3
Format/Info : Audio Coding 3
Mode extension : CM (complete main)
Codec ID : A_AC3
Duration : 1h 34mn
Bit rate mode : Constant
Bit rate : 448 Kbps
Channel(s) : 6 channels
Channel positions : Front: L C R, Side: L R, LFE
Sampling rate : 48.0 KHz
Bit depth : 16 bits
Compression mode : Lossy
Stream size : 302 MiB (5%)
Title : AC3 5.1 @ 448 kbps - Многоголосый закадровый, Киномания
Language : Russian

Audio #3
ID : 4
Format : AC-3
Format/Info : Audio Coding 3
Mode extension : CM (complete main)
Codec ID : A_AC3
Duration : 1h 34mn
Bit rate mode : Constant
Bit rate : 448 Kbps
Channel(s) : 6 channels
Channel positions : Front: L C R, Side: L R, LFE
Sampling rate : 48.0 KHz
Bit depth : 16 bits
Compression mode : Lossy
Stream size : 302 MiB (5%)
Title : AC3 5.1 @ 448 kbps - Одноголосый закадровый, Ю.Немахов
Language : Russian

Audio #4
ID : 5
Format : DTS
Format/Info : Digital Theater Systems
Codec ID : A_DTS
Duration : 1h 34mn
Bit rate mode : Constant
Bit rate : 1 510 Kbps
Channel(s) : 6 channels
Channel positions : Front: L C R, Side: L R, LFE
Sampling rate : 48.0 KHz
Bit depth : 24 bits
Compression mode : Lossy
Stream size : 1 019 MiB (17%)
Title : DTS 5.1 @ 1536 kbps
Language : English

Text #1
ID : 6
Format : UTF-8
Codec ID : S_TEXT/UTF8
Codec ID/Info : UTF-8 Plain Text
Language : Russian

Text #2
ID : 7
Format : UTF-8
Codec ID : S_TEXT/UTF8
Codec ID/Info : UTF-8 Plain Text
Language : English

Menu
00:00:00.000 : en:00:00:00.000
00:02:57.052 : en:00:02:57.052
00:05:03.512 : en:00:05:03.512
00:08:14.452 : en:00:08:14.452
00:13:34.063 : en:00:13:34.063
00:17:43.854 : en:00:17:43.854
00:24:15.287 : en:00:24:15.287
00:26:25.375 : en:00:26:25.375
00:30:19.359 : en:00:30:19.359
00:35:43.600 : en:00:35:43.600
00:43:28.147 : en:00:43:28.147
00:46:47.888 : en:00:46:47.888
00:48:53.764 : en:00:48:53.764
00:50:59.848 : en:00:50:59.848
00:54:48.202 : en:00:54:48.202
00:58:59.703 : en:00:58:59.703
01:04:04.340 : en:01:04:04.340
01:06:25.481 : en:01:06:25.481
01:09:41.010 : en:01:09:41.010
01:12:52.243 : en:01:12:52.243
01:15:32.236 : en:01:15:32.236
01:24:32.401 : en:01:24:32.401
01:27:49.681 : en:01:27:49.681
01:30:24.044 : en:01:30:24.044


Лучшая онлайн игра!


Публикация материалов сайта на сторонних ресурсах возможна только в неизменном виде.


Обсудить релиз на форуме

Вас также может заинтересовать:


  • 4
 (Голосов: 14)


Распечатать новость на принтере Боевик, Триллер, Драма, Криминал

КОММЕНТАРИИ

 №1. Marshall Mathers

Статус: Кинокритик | Новостей: 0 | Комментариев: 468
Marshall Mathers Ребят, посоветуйте, стоит ли смотреть этот фильм? Не пожалею о потраченном на него времени?
~~~

11.10.2011 - 00:08   цитировать  

 №2. naFFigg

Статус: Новичок | Новостей: 0 | Комментариев: 3
а вот мне интересно,кто каким плеером пользуется,при просмотре на компе?
я вот splash'ом,плеер шикарен,но вот не растягивает он изображение на весь экран.
~~~

11.10.2011 - 01:21   цитировать  

 №3. SerB_777

Статус: Кинокритик | Новостей: 0 | Комментариев: 583
SerB_777 Marshall Mathers,
очевидно, ты не геймер, и уж не заядлый геймер точно - ты б не спрашивал. Персонаж заимствован из популярной одноименной игры, а фильм, видимо был снят с целью срубить деньжат на волне этой самой популярности и обнажить Ольгу...
Все нижесказанное субъективно и, если коротенько - это не киношедевр, это не для мозга (он при просмотре не задействуется), это как раз для того, чтобы потратить время. Но... это динамично, с эффектной стрельбой, взрывами, поединками, погонями и кучей дырок от пуль. Идея сюжета: у парня, взращенного как машина для убийства, обнаруживаются признаки интеллекта, угрызения совести, вполне человеческое сердце и предполагается наличие "мужских атрибутов" ввиду, хоть и тщательно скрываемого, но очевидного влечения к прекрасному полу. В итоге, как это водится, "плохие дядьки" опшлепаны, мир и возлюбленная спасены! В общем, смотрим мы и такие фильмы...
А фанаты Хитмэна ждут, скорее всего, не столько римейк, сколько 5-ю часть игры...
С уважением к автору рипа за труд, спасибо.
~~~

11.10.2011 - 02:12   цитировать  

 №4. SerB_777

Статус: Кинокритик | Новостей: 0 | Комментариев: 583
SerB_777 naFFigg,
Честно говоря, не думал, что есть такие шикарные плееры, которые не растягивают изображение на весь экран. Для просмотра на компе не первый год пользую KMPlayer и GOM Player (предпочтение отдаю второму). При случае обновляю версии... Практически всеядны, ни с "растягиванием", ни с воспроизведением видео, дорожек и субтитров проблем нет. Надежная парочка, рекомендую.
~~~

11.10.2011 - 03:02   цитировать  

 №5. Dimyan

Статус: Новичок | Новостей: 0 | Комментариев: 9
Ребят а в Unrated версии как с переводом? полностью переведен или есть места без перевода?
~~~

11.10.2011 - 10:27   цитировать  

 №6. SerB_777

Статус: Кинокритик | Новостей: 0 | Комментариев: 583
SerB_777 Кстати, Marshall Mathers, на HQCLUB уже есть версия UNRATED этого фильма, только в AVI (см. продолжительность - 01:34:14). Театральная версия - 01:28:56.
~~~

11.10.2011 - 15:25   цитировать  

 №7. naFFigg

Статус: Новичок | Новостей: 0 | Комментариев: 3
SerB_777,
хм,сравнивал kmp и splash,разница в качестве есть,не в пользу kmp,дерганья и,как буд-то сглаживания картинки не хватает,но может растягивать,а вот сплэш,наоборот.
~~~

11.10.2011 - 16:24   цитировать  

 №8. naFFigg

Статус: Новичок | Новостей: 0 | Комментариев: 3
SerB_777хм,сравнивал kmp и splash,разница в качестве есть,не в пользу kmp,дерганья и,как буд-то сглаживания картинки не хватает,но может растягивать,а вот сплэш,наоборот.
~~~

11.10.2011 - 16:24   цитировать  

 №9. Marshall Mathers

Статус: Кинокритик | Новостей: 0 | Комментариев: 468
Marshall Mathers [color=]SerB_777,[/color] Спасибо тебе дружище. Теперь точно смотреть не буду ag Так как уже достали однотипные фильмы...
~~~

11.10.2011 - 17:09   цитировать  

 №10. zeffc63

Статус: Кинокритик | Новостей: 0 | Комментариев: 1096
zeffc63 Marshall Mathers , я думаю что посмотреть всетаки можно...
naFFigg, я смотрю VLC. Не знаю приимуществ других прог, меня эта устраивает..
~~~

12.10.2011 - 00:47   цитировать