Вас Приветствует Релиз-группа HQCLUB


Помощь ресурсу, очень ВАЖНО!!!



.


WELCOME
Добро пожаловать в наше интернет - сообщество!

Всех нас объединяет одна страсть - страсть к высококачественному кино. А это наш сайт. Ежедневно здесь мы публикуем десятки качественных, свежих, а порой и эксклюзивных релизов, которые Вы можете скачать совершенно бесплатно и без каких-либо регистраций. Посему рекомендуем Вам добавить HQClub себе в закладки, а также подписаться на нашу ленту новостей, чтобы всегда быть в курсе всех событий. Ну а если Вы такой же синий фил, как и мы, то милости просим на наш форум. И в заключение, попробуйте зарегистрироваться, ведь не так это и сложно и займет всего лишь пару минут! Вот увидите, Вам у нас понравится и Вы вольетесь в наш дружный коллектив! Ну а пока - осматривайтесь = )
Мы рады Вам !





Мистер и миссис Смит / Mr. and Mrs. Smith (2005) BDRip 720p

Оформил: Rensler | 26 сентября 2016 - 17:44:21 | Комментариев: 1 | Обращений: 443 {bookmarks_news}

http//img10.lostpic.net/2016/09/24/3cc632822be8519f9d69d538c463c6.png



Информация о фильме
Название: Мистер и миссис Смит
Оригинальное название: Mr. and Mrs. Smith
Год выхода: 2005
Жанр: Боевик, Триллер, Мелодрама, Комедия
В ролях: Брэд Питт (John Smith), Анджелина Джоли (Jane Smith), Винс Вон (Eddie), Адам Броди (Benjamin Danz), Керри Вашингтон (Jasmine), Кит Дэвид (Father), Крис Вайц (Martin Coleman), Рэйчел Хантли (Suzy Coleman), Мишель Монахэн (Gwen), Стефани Марч (Julie - Associate #1), Дженнифер Моррисон (Jade - Associate #2), Тереза Баррера (Janet - Associate #3).
Режиссёр: Даг Лайман / Doug Liman

О фильме:
Обычная супружеская пара оказывается союзом двух наемных убийц, долгое время не догадывавшихся о профессии друг друга. Супруги-киллеры работают на конкурирующие организации, и однажды муж получает задание уничтожить свою жену, а она – уничтожить его.

«Happy endings are for stories that haven't finished yet»



КиноПоиск: 7.5/10 (144 298 votes)
IMDB: 6.6/10 (346 015 777 votes)

Релиз от - http//lostpic.net/images/2015/09/27/68f6040cf6d8c2a9ae7072059386b6f9.png
Автор рипа: Rensler

Выпущено: США
Студия: Epsilon Motion Pictures, New Regency Pictures, Regency Enterprises, Summit Entertainment, Weed Road Pictures

Продолжительность: 01:59:58
Перевод:
• Профессиональный (полное дублирование) BD CEE
• Авторский (одноголосый, закадровый) «А.Гаврилов»
Оригинальная аудиодорожка: Английская
Субтитры: Русские (полные BD), Английские (полные BD)
Главы: Сохранены чаптеры с оригинального Blu-ray Disc

Файл:
Формат: MKV
Качество: BDRip 720p (источник: BLUEBIRD / Blu-ray [Custom] / 1080p)
Видео: 1280x544 (2,40:1) at 23.976, x264@L4.1 ~ 6150 kbps avg, 0.368 bit/pixel
Аудио#1: 48 kHz/16-bit, AC3 Dolby Digital, 3/2 (L,C,R,l,r) + LFE ch, ~ 640 kbps avg | RUS, Blu-ray
Аудио#2: 48 kHz/16-bit, AC3 Dolby Digital, 3/2 (L,C,R,l,r) + LFE ch, ~ 640 kbps avg | RUS, A.Gavrilov
Аудио#3: 48 kHz/16-bit, AC3 Dolby Digital, 3/2 (L,C,R,l,r) + LFE ch, ~ 640 kbps avg | ENG
Размер: 6,76 GB (DVD-9)
Скачать: Семпл

"MI@logx.264"
logx.264 написал:

x264 [info]: frame I:1303 Avg QP:13.95 size:108869
x264 [info]: frame P:39540 Avg QP:15.76 size: 51133
x264 [info]: frame B:131746 Avg QP:17.13 size: 25575
x264 [info]: consecutive B-frames: 2.3% 2.9% 9.9% 23.6% 19.3% 35.3% 1.7% 0.5% 0.3%
x264 [info]: ref P L0: 48.5% 5.6% 16.4% 8.6% 6.4% 4.7% 3.9% 2.4% 1.9% 1.6% 0.1% 0.0%

MediaInfo написал:
Уникальный идентификатор : 194371117338051948121245938913081682993 (0x923A83F927623A799FE9F5389871EC31)
Полное имя : K: Mister.I.Missis.Smit.2005.BluRay.720p.mkv
Формат : Matroska
Версия формата : Version 4 / Version 2
Размер файла : 6,76 Гбайт
Продолжительность : 1 ч. 59 м.
Общий поток : 8073 Кбит/сек
Название фильма : Мистер и миссис Смит / Mr. and Mrs. Smith (2005) Blu-ray 720p
Дата кодирования : UTC 2016-09-25 18:11:22
Программа кодирования : mkvmerge v8.3.0 ('Over the Horizon') 64bit
Библиотека кодирования : libebml v1.3.1 + libmatroska v1.4.2
Attachements : Cover.png

Видео
Идентификатор : 1
Формат : AVC
Формат/Информация : Advanced Video Codec
Профиль формата : High@L4.1
Параметр CABAC формата : Да
Параметр ReFrames формата : 10 кадров
Идентификатор кодека : V_MPEG4/ISO/AVC
Продолжительность : 1 ч. 59 м.
Битрейт : 6150 Кбит/сек
Ширина : 1280 пикселей
Высота : 544 пикселя
Соотношение сторон : 2,35:1
Режим частоты кадров : Постоянный
Частота кадров : 23,976 кадра/сек
Цветовое пространство : YUV
Субдискретизация насыщенности : 4:2:0
Битовая глубина : 8 бит
Тип развёртки : Прогрессивная
Бит/(Пиксели*Кадры) : 0.368
Размер потока : 5,02 Гбайт (74%)
Заголовок : Release by Rensler
Библиотека кодирования : x264 core 148 r2692 64f4e24
Настройки программы : cabac=1 / ref=10 / deblock=1:-3:-3 / analyse=0x3:0x113 / me=umh / subme=11 / psy=1 / psy_rd=1.00:0.00 / mixed_ref=1 / me_range=64 / chroma_me=1 / trellis=2 / 8x8dct=1 / cqm=0 / deadzone=21,11 / fast_pskip=0 / chroma_qp_offset=-2 / threads=3 / lookahead_threads=1 / sliced_threads=0 / nr=0 / decimate=0 / interlaced=0 / bluray_compat=0 / constrained_intra=0 / bframes=7 / b_pyramid=2 / b_adapt=2 / b_bias=0 / direct=3 / weightb=1 / open_gop=0 / weightp=2 / keyint=230 / keyint_min=23 / scenecut=40 / intra_refresh=0 / rc_lookahead=60 / rc=2pass / mbtree=0 / bitrate=6150 / ratetol=1.0 / qcomp=0.65 / qpmin=0 / qpmax=69 / qpstep=4 / cplxblur=20.0 / qblur=0.5 / vbv_maxrate=50000 / vbv_bufsize=62500 / nal_hrd=none / filler=0 / ip_ratio=1.28 / pb_ratio=1.18 / aq=2:0.80
Default : Да

Аудио #1
Идентификатор : 2
Формат : AC-3
Формат/Информация : Audio Coding 3
Расширение режима : CM (complete main)
Параметр Endianness формата : Big
Идентификатор кодека : A_AC3
Продолжительность : 1 ч. 59 м.
Вид битрейта : Постоянный
Битрейт : 640 Кбит/сек
Каналы : 6 каналов
Расположение каналов : Front: L C R, Side: L R, LFE
Частота : 48,0 КГц
Метод сжатия : С потерями
Размер потока : 549 Мбайт (8%)
Заголовок : BD CEE
Язык : Russian
Default : Да
Forced : Нет

Аудио #2
Идентификатор : 3
Формат : AC-3
Формат/Информация : Audio Coding 3
Расширение режима : CM (complete main)
Параметр Endianness формата : Big
Идентификатор кодека : A_AC3
Продолжительность : 1 ч. 59 м.
Вид битрейта : Постоянный
Битрейт : 640 Кбит/сек
Каналы : 6 каналов
Расположение каналов : Front: L C R, Side: L R, LFE
Частота : 48,0 КГц
Метод сжатия : С потерями
Размер потока : 549 Мбайт (8%)
Заголовок : AVO А.Gavrilov
Язык : Russian
Default : Нет
Forced : Нет

Аудио #3
Идентификатор : 4
Формат : AC-3
Формат/Информация : Audio Coding 3
Расширение режима : CM (complete main)
Параметр Endianness формата : Big
Идентификатор кодека : A_AC3
Продолжительность : 1 ч. 59 м.
Вид битрейта : Постоянный
Битрейт : 640 Кбит/сек
Каналы : 6 каналов
Расположение каналов : Front: L C R, Side: L R, LFE
Частота : 48,0 КГц
Метод сжатия : С потерями
Размер потока : 549 Мбайт (8%)
Заголовок : Original
Язык : English
Default : Нет
Forced : Нет

Текст #1
Идентификатор : 5
Формат : UTF-8
Идентификатор кодека : S_TEXT/UTF8
Идентификатор кодека/Информация : UTF-8 Plain Text
Заголовок : Full
Язык : Russian
Default : Нет
Forced : Нет

Текст #2
Идентификатор : 6
Формат : UTF-8
Идентификатор кодека : S_TEXT/UTF8
Идентификатор кодека/Информация : UTF-8 Plain Text
Заголовок : Full
Язык : English
Default : Нет
Forced : Нет

Меню
00:00:00.000 : en:Chapter 01
00:02:04.582 : en:Chapter 02
00:03:37.842 : en:Chapter 03
00:06:29.430 : en:Chapter 04
00:09:07.630 : en:Chapter 05
00:14:13.811 : en:Chapter 06
00:17:16.243 : en:Chapter 07
00:22:50.786 : en:Chapter 08
00:25:22.854 : en:Chapter 09
00:34:50.129 : en:Chapter 10
00:39:37.291 : en:Chapter 11
00:44:42.346 : en:Chapter 12
00:50:13.427 : en:Chapter 13
00:52:55.589 : en:Chapter 14
00:56:03.068 : en:Chapter 15
01:00:52.565 : en:Chapter 16
01:05:59.747 : en:Chapter 17
01:07:55.738 : en:Chapter 18
01:17:30.437 : en:Chapter 19
01:23:57.240 : en:Chapter 20
01:29:05.089 : en:Chapter 21
01:31:27.523 : en:Chapter 22
01:35:48.242 : en:Chapter 23
01:41:37.257 : en:Chapter 24
01:46:02.147 : en:Chapter 25
01:50:01.761 : en:Chapter 26
01:51:21.758 : en:Chapter 27
01:52:26.573 : en:Chapter 28
01:58:49.580 : en:Chapter 29


http//img10.lostpic.net/2016/09/25/cb450f10b453c24e013d0d4536352daa.th.jpg http//img10.lostpic.net/2016/09/25/d1ee8cf7bf302ddac04f62f42545f7d3.th.jpg http//img10.lostpic.net/2016/09/25/1c55da8d8d26d8d596f968d9522de681.th.jpg http//img10.lostpic.net/2016/09/25/f3bdb425fb75d70b800d1b635dd304.th.jpg
http//img10.lostpic.net/2016/09/25/962d37dccc41663a62e321ff50d581c5.th.jpg http//img10.lostpic.net/2016/09/25/78ae66c974a54cdad4a7b990a03f3ee1.th.jpg http//img10.lostpic.net/2016/09/25/60f892dbf4b77ba0a9011687d6fecfd5.th.jpg http//img10.lostpic.net/2016/09/25/dc933bcae5aa68ee38e3e6f4b8c9be.th.jpg

Ссылки для скачивания:
http//bt.hqclub.net/files/ok.png Торрент: Мистер и миссис Смит / Mr. and Mrs. Smith (2005) BDRip 720p


Публикация материалов сайта на сторонних ресурсах возможна только в неизменном виде.


Обсудить релиз на форуме

Вас также может заинтересовать:


  • 5
 (Голосов: 11)


Распечатать новость на принтере Боевик, Триллер, Мелодрама, Комедия
Обновлено: 26.09.2016 - 17:57

КОММЕНТАРИИ

 №1. LeonidMikhalin

Статус: Зритель | Новостей: 0 | Комментариев: 182
Спасибо берем

1.10.2016 - 00:55   цитировать