Вас Приветствует Релиз-группа HQCLUB


Помощь ресурсу, очень ВАЖНО!!!



.


WELCOME
Добро пожаловать в наше интернет - сообщество!

Всех нас объединяет одна страсть - страсть к высококачественному кино. А это наш сайт. Ежедневно здесь мы публикуем десятки качественных, свежих, а порой и эксклюзивных релизов, которые Вы можете скачать совершенно бесплатно и без каких-либо регистраций. Посему рекомендуем Вам добавить HQClub себе в закладки, а также подписаться на нашу ленту новостей, чтобы всегда быть в курсе всех событий. Ну а если Вы такой же синий фил, как и мы, то милости просим на наш форум. И в заключение, попробуйте зарегистрироваться, ведь не так это и сложно и займет всего лишь пару минут! Вот увидите, Вам у нас понравится и Вы вольетесь в наш дружный коллектив! Ну а пока - осматривайтесь = )
Мы рады Вам !





Средь бела дня / The Cold Light of Day [US Transfer] (2012) BDRip-AVC

Оформил: Sky™ | 20 октября 2012 - 17:26:41 | Комментариев: 2 | Обращений: 1353 {bookmarks_news}

http//lostpic.net/images/c4ef8f7f077ad0de4c0cb7701632b1.png

Информация о фильме:
Название: Средь бела дня
Оригинальное название: The Cold Light of Day
Год выхода: 2012
Жанр: боевик, триллер
Режиссер: Мабрук Эль Мекри
В ролях: Генри Кавилл, Сигурни Уивер, Вероника Эчеги, Рошди Зем, Джозеф Моул, Оскар Хаенада, Кэролайн Гудолл, Брюс Уиллис, Рафи Гаврон, Эмма Хэмилтон...

О фильме: Испания, море, яхта — отпуск с поднадоевшей молодому Уиллу Шоу компанией родственников… Никто не мог предположить, что уже через несколько часов палуба яхты обагрится кровью, а члены семьи Шоу станут заложниками в руках неизвестных. В поисках родных Уилл невольно узнает о государственном заговоре и раскрывает тайны своего отца. У парня всего несколько часов, чтобы спасти семью и страну от гибели.

«Будь осторожен даже с теми, кому доверяешь»



http//www.kinopoisk.ru/rating/454079.gif

Релиз от - http//hqclub.net/images/hqclub.png
Автор рипа: Sky™

Выпущено: США, Испания
Продолжительность: 01:33:34
Перевод: Профессиональный (полное дублирование) BD RUS + Оригинальная звуковая дорожка (Английский)
Субтитры: Русские, Английские (2 вида) (*.srt, отключаемые)
Сохранены оригинальные чаптеры как на Blu-ray.

Файл:
Формат: mkv
Качество: BDRip-AVC (источник:http//lostpic.net/images/9c91306e9cffafb1a5062eee37d4276c.png/ Blu-Ray Disc / 1080p)
Видео: 1024x436 (2.35:1), 24.000 fps, X264@L4.1 ~2438 kbps avg, 0.228 bit/pixel
Аудио #1: 48 kHz, AC3 Dolby Digital, 3/2 (L,C,R,l,r) + LFE ch, ~448 kbps avg (RUS) BD RUS
Аудио #2: 48 kHz, AC3 Dolby Digital, 3/2 (L,C,R,l,r) + LFE ch, ~448 kbps avg (ENG)
Размер: 2233.33 Mb
http//lostpic.net/images/1b899dddff9c84e7020a856612f5c646.png

http//lostpic.net/thumbs/34ab2874a81f980909440dda4c542d06.png http//lostpic.net/thumbs/1a14299d2adc3e538988752b28f46fa7.png http//lostpic.net/thumbs/accc65a8f8526a6e4e6b6626b865f0.png http//lostpic.net/thumbs/1cd8181106361a558c0d6738de034046.png http//lostpic.net/thumbs/c1ed9ff96207d6c52d384602515a1a1d.png http//lostpic.net/thumbs/bfb5faf6dfda6a09731ba2d033a4db29.png http//lostpic.net/thumbs/bdeb8d15def39fd03fcd1ad5e7ab3d5e.png
MediaINFO
[HTML]Полное имя : Sred.bela.dnya.2012.BDRip-AVC.x264.ac3.-HQCLUB.mkv
Формат : Matroska
Версия формата : Version 2
Размер файла : 2,18 Гбайт
Продолжительность : 1 ч. 33 м.
Общий поток : 3324 Кбит/сек
Дата кодирования : UTC 2012-10-20 09:10:26
Программа кодирования : mkvmerge v5.7.0 ('The Whirlwind') built on Jul 8 2012 20:08:51
Библиотека кодирования : libebml v1.2.3 + libmatroska v1.3.0

Видео
Идентификатор : 1
Формат : AVC
Формат/Информация : Advanced Video Codec
Профиль формата : High@L4.1
Параметр CABAC формата : Да
Параметр ReFrames формата : 14 кадров
Идентификатор кодека : V_MPEG4/ISO/AVC
Продолжительность : 1 ч. 33 м.
Битрейт : 2438 Кбит/сек
Ширина : 1024 пикселя
Высота : 436 пикселей
Соотношение сторон : 2,35:1
Частота кадров : 24,000 кадра/сек
Цветовое пространство : YUV
Субдискретизация насыщенности : 4:2:0
Битовая глубина : 8 бит
Тип развёртки : Прогрессивная
Бит/(Пиксели*Кадры) : 0.228
Размер потока : 1,55 Гбайт (71%)
Заголовок : Средь бела дня / The Cold Light of Day (2012) BDRip-AVC | HQCLUB
Библиотека кодирования : x264 core 120 r2146 bcd41db
Настройки программы : cabac=1 / ref=14 / deblock=1:-2:-3 / analyse=0x3:0x113 / me=umh / subme=11 / psy=1 / psy_rd=1.00:0.15 / mixed_ref=1 / me_range=64 / chroma_me=1 / trellis=2 / 8x8dct=1 / cqm=0 / deadzone=21,11 / fast_pskip=0 / chroma_qp_offset=-3 / threads=12 / sliced_threads=0 / nr=0 / decimate=1 / interlaced=0 / bluray_compat=0 / constrained_intra=0 / bframes=16 / b_pyramid=2 / b_adapt=2 / b_bias=0 / direct=3 / weightb=1 / open_gop=0 / weightp=2 / keyint=240 / keyint_min=24 / scenecut=40 / intra_refresh=0 / rc_lookahead=40 / rc=2pass / mbtree=0 / bitrate=2438 / ratetol=1.0 / qcomp=0.60 / qpmin=0 / qpmax=69 / qpstep=4 / cplxblur=20.0 / qblur=0.5 / vbv_maxrate=62500 / vbv_bufsize=50000 / nal_hrd=none / ip_ratio=1.40 / pb_ratio=1.30 / aq=1:0.90
Язык : English
Default : Да
Forced : Нет

Аудио #1
Идентификатор : 2
Формат : AC-3
Формат/Информация : Audio Coding 3
Расширение режима : CM (complete main)
Параметр Endianness формата : Big
Идентификатор кодека : A_AC3
Продолжительность : 1 ч. 33 м.
Вид битрейта : Постоянный
Битрейт : 448 Кбит/сек
Каналы : 6 каналов
Расположение каналов : Front: L C R, Side: L R, LFE
Частота : 48,0 КГц
Битовая глубина : 16 бит
Метод сжатия : С потерями
Размер потока : 301 Мбайт (13%)
Заголовок : Дубляж (BD RUS) AC3 5.1 @ 448 kbps
Язык : Russian
Default : Да
Forced : Да

Аудио #2
Идентификатор : 3
Формат : AC-3
Формат/Информация : Audio Coding 3
Расширение режима : CM (complete main)
Параметр Endianness формата : Big
Идентификатор кодека : A_AC3
Продолжительность : 1 ч. 33 м.
Вид битрейта : Постоянный
Битрейт : 448 Кбит/сек
Каналы : 6 каналов
Расположение каналов : Front: L C R, Side: L R, LFE
Частота : 48,0 КГц
Битовая глубина : 16 бит
Метод сжатия : С потерями
Размер потока : 301 Мбайт (13%)
Заголовок : Оригинал AC3 5.1 @ 448 kbps
Язык : English
Default : Нет
Forced : Да

Текст #1
Идентификатор : 4
Формат : UTF-8
Идентификатор кодека : S_TEXT/UTF8
Идентификатор кодека/Информация : UTF-8 Plain Text
Заголовок : Full
Язык : Russian
Default : Да
Forced : Да

Текст #2
Идентификатор : 5
Формат : UTF-8
Идентификатор кодека : S_TEXT/UTF8
Идентификатор кодека/Информация : UTF-8 Plain Text
Заголовок : Full
Язык : English
Default : Нет
Forced : Да

Текст #3
Идентификатор : 6
Формат : UTF-8
Идентификатор кодека : S_TEXT/UTF8
Идентификатор кодека/Информация : UTF-8 Plain Text
Заголовок : SDH
Язык : English
Default : Нет
Forced : Да

Меню
00:00:00.000 : en:00:00:00.000
00:08:41.000 : en:00:08:41.000
00:15:49.833 : en:00:15:49.833
00:22:52.458 : en:00:22:52.458
00:32:26.125 : en:00:32:26.125
00:41:09.583 : en:00:41:09.583
00:51:29.667 : en:00:51:29.667
00:56:48.750 : en:00:56:48.750
01:03:23.333 : en:01:03:23.333
01:11:06.458 : en:01:11:06.458
01:16:06.875 : en:01:16:06.875
01:25:11.375 : en:01:25:11.375[/HTML]

x264 log
[HTML]
-[NoImage] x264 [info]: frame I:945 Avg QP:17.26 size: 51648
-[NoImage] x264 [info]: frame P:31755 Avg QP:19.13 size: 20674
-[NoImage] x264 [info]: frame B:102030 Avg QP:20.05 size: 9841
-[NoImage] x264 [info]: consecutive B-frames: 4.0% 3.9% 9.8% 20.5% 16.7% 28.6% 6.4% 1.5% 1.9% 1.3% 1.3% 0.8% 1.3% 1.4% 0.5% 0.1% 0.1%[/HTML]

Ссылки для скачивания:

http//bt.hqclub.net/files/ok.png Торрент: Средь бела дня / The Cold Light of Day [US Transfer] (2012) BDRip-AVC

Лучшая онлайн игра!


Публикация материалов сайта на сторонних ресурсах возможна только в неизменном виде.


Обсудить релиз на форуме

Вас также может заинтересовать:


  • 4
 (Голосов: 3)


Распечатать новость на принтере Боевик, Триллер
Обновлено: 21.10.2012 - 20:27

КОММЕНТАРИИ

 №1. Sky™

Статус: Новичок | Новостей: 153 | Комментариев: 43
Sky™ сравнение с рипом с этого трансфера:

видео

аудио
~~~

20.10.2012 - 17:59   цитировать  

 №2. ru4lan

Статус: Кинокритик | Новостей: 0 | Комментариев: 2736
ru4lan Уважаю Сигурни
~~~

20.10.2012 - 20:23   цитировать