Вас Приветствует Релиз-группа HQCLUB


Помощь ресурсу, очень ВАЖНО!!!



.


WELCOME
Добро пожаловать в наше интернет - сообщество!

Всех нас объединяет одна страсть - страсть к высококачественному кино. А это наш сайт. Ежедневно здесь мы публикуем десятки качественных, свежих, а порой и эксклюзивных релизов, которые Вы можете скачать совершенно бесплатно и без каких-либо регистраций. Посему рекомендуем Вам добавить HQClub себе в закладки, а также подписаться на нашу ленту новостей, чтобы всегда быть в курсе всех событий. Ну а если Вы такой же синий фил, как и мы, то милости просим на наш форум. И в заключение, попробуйте зарегистрироваться, ведь не так это и сложно и займет всего лишь пару минут! Вот увидите, Вам у нас понравится и Вы вольетесь в наш дружный коллектив! Ну а пока - осматривайтесь = )
Мы рады Вам !





Средь бела дня / The Cold Light of Day [US Transfer] (2012) BDRip 720p

Оформил: Sky™ | 21 октября 2012 - 21:51:33 | Комментариев: 1 | Обращений: 1676 {bookmarks_news}

http//lostpic.net/images/c4ef8f7f077ad0de4c0cb7701632b1.png

Информация о фильме:
Название: Средь бела дня
Оригинальное название: The Cold Light of Day
Год выхода: 2012
Жанр: боевик, триллер
Режиссер: Мабрук Эль Мекри
В ролях: Генри Кавилл, Сигурни Уивер, Вероника Эчеги, Рошди Зем, Джозеф Моул, Оскар Хаенада, Кэролайн Гудолл, Брюс Уиллис, Рафи Гаврон, Эмма Хэмилтон...

О фильме: Испания, море, яхта — отпуск с поднадоевшей молодому Уиллу Шоу компанией родственников… Никто не мог предположить, что уже через несколько часов палуба яхты обагрится кровью, а члены семьи Шоу станут заложниками в руках неизвестных. В поисках родных Уилл невольно узнает о государственном заговоре и раскрывает тайны своего отца. У парня всего несколько часов, чтобы спасти семью и страну от гибели.

«Будь осторожен даже с теми, кому доверяешь»



http//www.kinopoisk.ru/rating/454079.gif

Релиз от - http//hqclub.net/images/hqclub.png
Автор рипа: Sky™

Выпущено: США, Испания
Продолжительность: 01:33:34
Перевод: Профессиональный (полное дублирование) BD RUS + Оригинальная звуковая дорожка (Английский)
Субтитры: Русские (Е. Воронин), Английские (2 вида) (*.srt, отключаемые)
Сохранены оригинальные чаптеры как на Blu-ray.

Файл:
Формат: mkv
Качество: BDRip 720p (источник:http//lostpic.net/images/9c91306e9cffafb1a5062eee37d4276c.png/ Blu-Ray Disc / 1080p)
Видео: 1280x544 (2.35:1), 24.000 fps, X264@L4.1 ~5500 kbps avg, 0.329 bit/pixel
Аудио #1: 48 kHz, AC3 Dolby Digital, 3/2 (L,C,R,l,r) + LFE ch, ~640 kbps avg (RUS) BD RUS
Аудио #2: 48 kHz, AC3 Dolby Digital, 3/2 (L,C,R,l,r) + LFE ch, ~640 kbps avg (ENG)
Размер: 4966.27 Mb
http//lostpic.net/images/1b899dddff9c84e7020a856612f5c646.png

http//lostpic.net/thumbs/d95bb8dbbbf8d2e012acd9346b8045.png http//lostpic.net/thumbs/9a152e186c3641832a5c63697c5fc956.png http//lostpic.net/thumbs/47c76dfc932e5b27583cca636b3398.png http//lostpic.net/thumbs/15072f4c27b72de86242ca62695a3f34.png http//lostpic.net/thumbs/53c73040dadc34e76b2ce8643a37e9.png http//lostpic.net/thumbs/ba0eb54252d3e07d8e8bb731b7cffa8b.png
MediaINFO
[HTML]Полное имя : Sred.bela.dnya.2012\Sred.bela.dnya.2012.BDRip.720p.H264.AC3.-HQCLUB.mkv
Формат : Matroska
Версия формата : Version 2
Размер файла : 4,43 Гбайт
Продолжительность : 1 ч. 33 м.
Общий поток : 6755 Кбит/сек
Дата кодирования : UTC 2012-10-21 09:15:50
Программа кодирования : mkvmerge v5.7.0 ('The Whirlwind') built on Jul 8 2012 20:08:51
Библиотека кодирования : libebml v1.2.3 + libmatroska v1.3.0

Видео
Идентификатор : 1
Формат : AVC
Формат/Информация : Advanced Video Codec
Профиль формата : High@L4.1
Параметр CABAC формата : Да
Параметр ReFrames формата : 12 кадров
Идентификатор кодека : V_MPEG4/ISO/AVC
Продолжительность : 1 ч. 33 м.
Битрейт : 5500 Кбит/сек
Ширина : 1280 пикселей
Высота : 544 пикселя
Соотношение сторон : 2,35:1
Частота кадров : 24,000 кадра/сек
Цветовое пространство : YUV
Субдискретизация насыщенности : 4:2:0
Битовая глубина : 8 бит
Тип развёртки : Прогрессивная
Бит/(Пиксели*Кадры) : 0.329
Размер потока : 3,50 Гбайт (79%)
Заголовок : Средь бела дня / The Cold Light of Day (2012) BDRip 720p | HQCLUB
Библиотека кодирования : x264 core 120 r2146 bcd41db
Настройки программы : cabac=1 / ref=12 / deblock=1:-2:-3 / analyse=0x3:0x113 / me=umh / subme=11 / psy=1 / psy_rd=1.00:0.15 / mixed_ref=1 / me_range=64 / chroma_me=1 / trellis=2 / 8x8dct=1 / cqm=0 / deadzone=21,11 / fast_pskip=0 / chroma_qp_offset=-3 / threads=12 / sliced_threads=0 / nr=0 / decimate=1 / interlaced=0 / bluray_compat=0 / constrained_intra=0 / bframes=16 / b_pyramid=2 / b_adapt=2 / b_bias=0 / direct=3 / weightb=1 / open_gop=0 / weightp=2 / keyint=240 / keyint_min=24 / scenecut=40 / intra_refresh=0 / rc_lookahead=40 / rc=2pass / mbtree=0 / bitrate=5500 / ratetol=1.0 / qcomp=0.60 / qpmin=0 / qpmax=69 / qpstep=4 / cplxblur=20.0 / qblur=0.5 / vbv_maxrate=62500 / vbv_bufsize=50000 / nal_hrd=none / ip_ratio=1.40 / pb_ratio=1.30 / aq=1:0.90
Язык : English
Default : Да
Forced : Нет

Аудио #1
Идентификатор : 2
Формат : AC-3
Формат/Информация : Audio Coding 3
Расширение режима : CM (complete main)
Параметр Endianness формата : Big
Идентификатор кодека : A_AC3
Продолжительность : 1 ч. 33 м.
Вид битрейта : Постоянный
Битрейт : 640 Кбит/сек
Каналы : 6 каналов
Расположение каналов : Front: L C R, Side: L R, LFE
Частота : 48,0 КГц
Битовая глубина : 16 бит
Метод сжатия : С потерями
Размер потока : 430 Мбайт (9%)
Заголовок : Дубляж (BD RUS)AC3 5.1 @ 640 kbps
Язык : Russian
Default : Да
Forced : Да

Аудио #2
Идентификатор : 3
Формат : AC-3
Формат/Информация : Audio Coding 3
Расширение режима : CM (complete main)
Параметр Endianness формата : Big
Идентификатор кодека : A_AC3
Продолжительность : 1 ч. 33 м.
Вид битрейта : Постоянный
Битрейт : 640 Кбит/сек
Каналы : 6 каналов
Расположение каналов : Front: L C R, Side: L R, LFE
Частота : 48,0 КГц
Битовая глубина : 16 бит
Метод сжатия : С потерями
Размер потока : 430 Мбайт (9%)
Заголовок : Оригинал AC3 5.1 @ 640 kbps
Язык : English
Default : Нет
Forced : Да

Текст #1
Идентификатор : 4
Формат : UTF-8
Идентификатор кодека : S_TEXT/UTF8
Идентификатор кодека/Информация : UTF-8 Plain Text
Заголовок : Full
Язык : Russian
Default : Да
Forced : Да

Текст #2
Идентификатор : 5
Формат : UTF-8
Идентификатор кодека : S_TEXT/UTF8
Идентификатор кодека/Информация : UTF-8 Plain Text
Заголовок : Full
Язык : English
Default : Нет
Forced : Да

Текст #3
Идентификатор : 6
Формат : UTF-8
Идентификатор кодека : S_TEXT/UTF8
Идентификатор кодека/Информация : UTF-8 Plain Text
Заголовок : SDH
Язык : English
Default : Нет
Forced : Да

Меню
00:00:00.000 : en:00:00:00.000
00:08:41.000 : en:00:08:41.000
00:15:49.833 : en:00:15:49.833
00:22:52.458 : en:00:22:52.458
00:32:26.125 : en:00:32:26.125
00:41:09.583 : en:00:41:09.583
00:51:29.667 : en:00:51:29.667
00:56:48.750 : en:00:56:48.750
01:03:23.333 : en:01:03:23.333
01:11:06.458 : en:01:11:06.458
01:16:06.875 : en:01:16:06.875
01:25:11.375 : en:01:25:11.375[/HTML]

x264 log
[HTML]---[NoImage] x264 [info]: frame I:901 Avg QP:16.38 size: 87550
---[NoImage] x264 [info]: frame P:31053 Avg QP:17.55 size: 42168
---[NoImage] x264 [info]: frame B:102776 Avg QP:18.42 size: 24004
---[NoImage] x264 [info]: consecutive B-frames: 3.5% 4.0% 10.2% 17.8% 15.4% 30.9% 8.0% 1.7% 1.8% 1.5% 1.3% 0.7% 1.4% 1.3% 0.3% 0.1% 0.1%[/HTML]

Ссылки для скачивания:

http//bt.hqclub.net/files/ok.png Торрент: [INVALID URL BB CODE]

Лучшая онлайн игра!


Публикация материалов сайта на сторонних ресурсах возможна только в неизменном виде.


Обсудить релиз на форуме

Вас также может заинтересовать:


  • 4
 (Голосов: 6)


Распечатать новость на принтере Боевик, Триллер
Обновлено: 24.10.2012 - 00:45

КОММЕНТАРИИ

 №1. ru4lan

Статус: Кинокритик | Новостей: 0 | Комментариев: 2736
ru4lan Такие матроски я не качаю, много места занимают
~~~

23.10.2012 - 16:22   цитировать