Вас Приветствует Релиз-группа HQCLUB


Помощь ресурсу, очень ВАЖНО!!!



.


WELCOME
Добро пожаловать в наше интернет - сообщество!

Всех нас объединяет одна страсть - страсть к высококачественному кино. А это наш сайт. Ежедневно здесь мы публикуем десятки качественных, свежих, а порой и эксклюзивных релизов, которые Вы можете скачать совершенно бесплатно и без каких-либо регистраций. Посему рекомендуем Вам добавить HQClub себе в закладки, а также подписаться на нашу ленту новостей, чтобы всегда быть в курсе всех событий. Ну а если Вы такой же синий фил, как и мы, то милости просим на наш форум. И в заключение, попробуйте зарегистрироваться, ведь не так это и сложно и займет всего лишь пару минут! Вот увидите, Вам у нас понравится и Вы вольетесь в наш дружный коллектив! Ну а пока - осматривайтесь = )
Мы рады Вам !





Срочная доставка / Premium Rush (2012) BDRip-AVC

Оформил: MOSFET | 1 декабря 2012 - 16:05:48 | Комментариев: 1 | Обращений: 1625 {bookmarks_news}

http//lostpic.net/images/789874f629755320808216be4a5d4f0b.png

Информация о фильме
Название: Срочная доставка
Оригинальное название: Premium Rush
Год выхода: 2012
Жанр: боевик, триллер
Режиссер: Дэвид Кепп / David Koepp
В ролях: Джозеф Гордон-Левитт, Дания Рамирез, Эшли Остин Моррис, Аасиф Мандви, Лорен Эшли Картер, Чарльз Борланд, Майкл Шеннон, Аарон Твейт, Джейми Чунг, Крис Плэйс, Шон Кеннеди, Ким Перфетто

О фильме:
Нью-йоркский посыльный в один прекрасный день забирает некий конверт в Колумбийском университете. Но оказывается, что содержимое послания очень интересует одного коррумпированного полицейского, который начинает преследование героя.

User Rating: 7.040/10 (599 votes)
Imdb: 6.9/10 (8568 votes)

Релиз от - http//hqclub.net/images/hqclub.png
Автор рипа: MOSFET

Выпущено: США
Продолжительность: 01:30:57
Перевод: Профессиональный (многоголосый закадровый) R5 + Оригинальная звуковая дорожка
Субтитры: Русские, украинские, английские (*.srt, отключаемые)

Файл:
Формат: MKV
Качество: BDRip-AVC (источник: bluebird-hd / Blu-Ray CEE / 1080p)
Видео: 1036x432 (2.40:1), 23.976 fps, x264@L4.1, 2pass, ~3664 kbps avg, 0.34 bit/pixel
Аудио #1: 48 kHz, AC3, 3/2 (L,C,R,l,r) + LFE ch, ~448.00 kbps avg (RUS)
Аудио #2: 48 kHz, AC3, 3/2 (L,C,R,l,r) + LFE ch, ~448.00 kbps avg (ENG)
Размер: 2967,78 mb (2/3 DVD)
Скачать: Сэмпл

http//lostpic.net/thumbs/b53316c2fdf94db729d54025831ade18.png http//lostpic.net/thumbs/34b4b86a654a302590be0e38142e2376.png http//lostpic.net/thumbs/82a3b1e273cb3f1cfcb0be9d2bb5f3b8.png http//lostpic.net/thumbs/66b18a3fd0b00cd09804792a5df51ad7.png http//lostpic.net/thumbs/19893c90d41d1fda8eff81aef9304075.png http//lostpic.net/thumbs/90fdd8dadf8ef5977ca1a9bd9fe158.png

MediaINFO
[HTML]Полное имя : Srochnaya.dostavka.2012.DUAL.BDRip-AVC.x264.AC3.-HQCLUB.mkv
Формат : Matroska
Версия формата : Version 2
Размер файла : 2,90 Гбайт
Продолжительность : 1 ч. 30 м.
Общий поток : 4562 Кбит/сек
Дата кодирования : UTC 2012-11-30 16:33:00
Программа кодирования : mkvmerge v5.8.0 ('No Sleep / Pillow') built on Sep 2 2012 15:37:04
Библиотека кодирования : libebml v1.2.3 + libmatroska v1.3.0

Видео
Идентификатор : 1
Формат : AVC
Формат/Информация : Advanced Video Codec
Профиль формата : High@L4.1
Параметр CABAC формата : Да
Параметр ReFrames формата : 7 кадров
Идентификатор кодека : V_MPEG4/ISO/AVC
Продолжительность : 1 ч. 30 м.
Битрейт : 3664 Кбит/сек
Ширина : 1036 пикселей
Высота : 432 пикселя
Соотношение сторон : 2,40:1
Режим частоты кадров : Постоянный
Частота кадров : 23,976 кадра/сек
Цветовое пространство : YUV
Субдискретизация насыщенности : 4:2:0
Битовая глубина : 8 бит
Тип развёртки : Прогрессивная
Бит/(Пиксели*Кадры) : 0.341
Размер потока : 2,27 Гбайт (78%)
Заголовок : Срочная доставка / Premium Rush (2012) BDRip-AVC by MOSFET | HQCLUB.NET
Библиотека кодирования : x264 core 125 r2200 999b753
Настройки программы : cabac=1 / ref=7 / deblock=1:-2:-1 / analyse=0x3:0x113 / me=esa / subme=10 / psy=1 / psy_rd=1.00:0.00 / mixed_ref=1 / me_range=48 / chroma_me=1 / trellis=2 / 8x8dct=1 / cqm=0 / deadzone=21,11 / fast_pskip=0 / chroma_qp_offset=-2 / threads=12 / lookahead_threads=2 / sliced_threads=0 / nr=0 / decimate=1 / interlaced=0 / bluray_compat=0 / constrained_intra=0 / bframes=9 / b_pyramid=2 / b_adapt=2 / b_bias=0 / direct=3 / weightb=1 / open_gop=0 / weightp=2 / keyint=240 / keyint_min=23 / scenecut=40 / intra_refresh=0 / rc_lookahead=50 / rc=2pass / mbtree=1 / bitrate=3664 / ratetol=1.0 / qcomp=0.70 / qpmin=0 / qpmax=69 / qpstep=4 / cplxblur=20.0 / qblur=0.5 / vbv_maxrate=50000 / vbv_bufsize=62500 / nal_hrd=none / ip_ratio=1.40 / aq=1:0.80
Язык : English
Default : Да
Forced : Нет

Аудио #1
Идентификатор : 2
Формат : AC-3
Формат/Информация : Audio Coding 3
Расширение режима : CM (complete main)
Параметр Endianness формата : Big
Идентификатор кодека : A_AC3
Продолжительность : 1 ч. 30 м.
Вид битрейта : Постоянный
Битрейт : 448 Кбит/сек
Каналы : 6 каналов
Расположение каналов : Front: L C R, Side: L R, LFE
Частота : 48,0 КГц
Битовая глубина : 16 бит
Метод сжатия : С потерями
Размер потока : 291 Мбайт (10%)
Заголовок : Профессиональный (многоголосый закадровый) Blu-ray CEE
Язык : Russian
Default : Да
Forced : Нет

Аудио #2
Идентификатор : 3
Формат : AC-3
Формат/Информация : Audio Coding 3
Расширение режима : CM (complete main)
Параметр Endianness формата : Big
Идентификатор кодека : A_AC3
Продолжительность : 1 ч. 30 м.
Вид битрейта : Постоянный
Битрейт : 448 Кбит/сек
Каналы : 6 каналов
Расположение каналов : Front: L C R, Side: L R, LFE
Частота : 48,0 КГц
Битовая глубина : 16 бит
Метод сжатия : С потерями
Размер потока : 291 Мбайт (10%)
Заголовок : Оригинальная звуковая дорожка
Язык : English
Default : Нет
Forced : Нет

Текст #1
Идентификатор : 4
Формат : UTF-8
Идентификатор кодека : S_TEXT/UTF8
Идентификатор кодека/Информация : UTF-8 Plain Text
Заголовок : Русские
Язык : Russian
Default : Нет
Forced : Нет

Текст #2
Идентификатор : 5
Формат : UTF-8
Идентификатор кодека : S_TEXT/UTF8
Идентификатор кодека/Информация : UTF-8 Plain Text
Заголовок : Украинские
Язык : Ukrainian
Default : Нет
Forced : Нет

Текст #3
Идентификатор : 6
Формат : UTF-8
Идентификатор кодека : S_TEXT/UTF8
Идентификатор кодека/Информация : UTF-8 Plain Text
Заголовок : Английские
Язык : English
Default : Нет
Forced : Нет

Меню
00:00:00.000 : en:Chapter 00
00:05:43.301 : en:Chapter 01
00:10:33.674 : en:Chapter 02
00:19:39.845 : en:Chapter 03
00:22:41.401 : en:Chapter 04
00:28:54.107 : en:Chapter 05
00:33:01.562 : en:Chapter 06
00:37:37.171 : en:Chapter 07
00:44:25.412 : en:Chapter 08
00:50:52.758 : en:Chapter 09
00:55:17.772 : en:Chapter 10
00:58:40.600 : en:Chapter 11
01:02:10.935 : en:Chapter 12
01:09:15.234 : en:Chapter 13
01:15:52.756 : en:Chapter 14
01:22:29.861 : en:Chapter 15
[/HTML]

x264 log
[HTML]---[NoImage] x264 [info]: frame I:1060 Avg QP:17.14 size: 82668
---[NoImage] x264 [info]: frame P:36262 Avg QP:19.32 size: 33460
---[NoImage] x264 [info]: frame B:93525 Avg QP:21.40 size: 12811

---[NoImage] x264 [info]: consecutive B-frames: 4.7% 8.0% 13.4% 32.3% 15.9% 19.7% 3.2% 2.0% 0.6% 0.2%

---[NoImage] x264 [info]: ref P L0: 51.9% 14.9% 15.9% 5.6% 4.7% 3.3% 3.3% 0.5% 0.0%
---[NoImage] x264 [info]: ref B L0: 80.2% 10.8% 4.7% 2.5% 1.2% 0.6%
---[NoImage] x264 [info]: ref B L1: 94.2% 5.8%[/HTML]


Ссылки для скачивания:

http//bt.hqclub.net/files/ok.png Торрент: Срочная доставка / Premium Rush (2012) BDRip-AVC

Лучшая онлайн игра!


Публикация материалов сайта на сторонних ресурсах возможна только в неизменном виде.


Обсудить релиз на форуме

Вас также может заинтересовать:


  • 5
 (Голосов: 3)


Распечатать новость на принтере Боевик, Триллер
Обновлено: 3.12.2012 - 01:18

КОММЕНТАРИИ

 №1. ru4lan

Статус: Кинокритик | Новостей: 0 | Комментариев: 2736
ru4lan посмортим
~~~

2.12.2012 - 03:05   цитировать