Вас Приветствует Релиз-группа HQCLUB


Помощь ресурсу, очень ВАЖНО!!!



.


WELCOME
Добро пожаловать в наше интернет - сообщество!

Всех нас объединяет одна страсть - страсть к высококачественному кино. А это наш сайт. Ежедневно здесь мы публикуем десятки качественных, свежих, а порой и эксклюзивных релизов, которые Вы можете скачать совершенно бесплатно и без каких-либо регистраций. Посему рекомендуем Вам добавить HQClub себе в закладки, а также подписаться на нашу ленту новостей, чтобы всегда быть в курсе всех событий. Ну а если Вы такой же синий фил, как и мы, то милости просим на наш форум. И в заключение, попробуйте зарегистрироваться, ведь не так это и сложно и займет всего лишь пару минут! Вот увидите, Вам у нас понравится и Вы вольетесь в наш дружный коллектив! Ну а пока - осматривайтесь = )
Мы рады Вам !





Последнее испытание Шаолиня / Деревянные люди Шаолиня / Shaolin Wooden Men / Shao Lin mu ren xiang (1976) BDRip-AVC

Оформил: Elheym | 10 июня 2015 - 21:05:39 | Обращений: 684 {bookmarks_news}

http//lostpic.net/orig_images/6/8/c/68cedbd7eb8d011bea6461e02b0447ea.jpg

Информация о фильме:
Название: Последнее испытание Шаолиня
Оригинальное название: Shao Lin mu ren xiang
Год выхода: 1976
Жанр: боевик
Режиссер: Чи-Хва Чен / Chi-Hwa Chen
В ролях: Джеки Чан, Чун-ер Ланг, Кан Чин, Чан Пин-юй, И-фэй Чанг, Лу Чианг Чао, , Цзинь Цзян, Хсин Чин, Кан Хо

О фильме: Молодой парень по прозвищу Молчун — сирота, который принимает обет молчания после гибели своего отца от рук мастера боевых искусств. Проживая в шаолиньском монастыре, Молчун сближается с опасным заключённым, который обучает его секретным способам смертельного кунг-фу. Заметив упорство и стремление юноши стать мастером кунг-фу, мастера обучают его другим техникам этого боевого искусства. Молчун преодолевает последнее испытание Шаолиня и отправляется на поиски убийцы своего отца…

http//rating.kinopoisk.ru/24732.gif http//tracker.0day.kiev.ua/imdb/imdb_tt0075201.gif

Релиз от - http//hqclub.net/images/hqclub.png
Автор рипа: Elheym

Выпущено: Тайвань, Гонконг ‖ Lo Wei Motion Picture Co., Toei Central Films
Продолжительность: 01:47:08
Перевод 1: Профессиональный (многоголосый, закадровый) ДТВ
Перевод 2: Профессиональный (многоголосый, закадровый) Инис
Оригинальная аудиодорожка: китайская
Субтитры: русские (полные), английские (полные)
Главы: присутствуют, сохранены оригинальные

Дополнительные аудиодорожки:
+ Профессиональный (одноголосый, закадровый) Акцент
+ Авторский (одноголосый, закадровый) Андрей Дольский

Файл:
Формат: MKV
Качество: BDRip-AVC (источник: http//i28.fastpic.ru/big/2011/1013/a8/a3d28e80c9544f4c572189fc892ea8.gif от Gellard / Blu-ray JAP Remux [SHAOLIN_WOODEN_MEN_1976_HDCLUB] / 1080p)
Видео: 1150x484 (2.40:1), 23.976 fps, MPEG-4 AVC, ~4500 kbps avg, 0.337 bit/pixel
Аудио #1: 48 kHz, AC3 Dolby Digital, 2/0 (L,R) ch, ~192 kbps avg (MVO.DTV)
Аудио #2: 48 kHz, AC3 Dolby Digital, 2/0 (L,R) ch, ~192 kbps avg (MVO.INIS)
Аудио #3: 48 kHz, AC3 Dolby Digital, 3/2 (L,C,R,l,r) + LFE ch, ~448 kbps avg (CHI)
Аудио #4: 48 kHz, AC3 Dolby Digital, 2/0 (L,R) ch, ~192 kbps avg (VO.AKCENT) (отдельно)
Аудио #5: 48 kHz, AC3 Dolby Digital, 2/0 (L,R) ch, ~192 kbps avg (AVO.DOLSKIY) (отдельно)]
Размер: 3.99 GB
Сэмпл: скачать

http//lostpic.net/thumbs_images/5/d/5/5d5cdc43ffd099f10d04e52013b9df82.png http//lostpic.net/thumbs_images/5/f/7/5f7034a70345c2a2151dc1ecee4dba.png http//lostpic.net/thumbs_images/d/2/a/d2a074778cd4e770cf6dd2fceda2b6c8.png http//lostpic.net/thumbs_images/9/6/9/9690b083d58bd0ca028e47a2445fb184.png http//lostpic.net/thumbs_images/8/1/4/81432d7f20b007a192fda90ee5e966df.png http//lostpic.net/thumbs_images/9/5/a/95aa350dab0b6e34d3a0fd569864e3f7.png

"MediaInfo"

Уникальный идентификатор : 251031618197290462373110194144799477570 (0xBCDAEE591F947E588875724BBC8DCF42)
Полное имя : Shaolin.Wooden.Men.1976.TRIPLE.BDRip-AVC.x264.AC3.-HQCLUB.mkv
Формат : Matroska
Версия формата : Version 2
Размер файла : 3,99 Гбайт
Продолжительность : 1 ч. 47 м.
Общий поток : 5335 Кбит/сек
Название фильма : Последнее испытание Шаолиня / Деревянные люди Шаолиня / Shaolin Wooden Men / Shao Lin mu ren xiang (1976) BDRip-AVC by HQCLUB [Elheym]
Дата кодирования : UTC 2015-06-10 16:30:01
Программа кодирования : mkvmerge v5.2.0 ('I can't explain') built on Dec 18 2011 18:12:03
Библиотека кодирования : libebml v1.2.3 + libmatroska v1.3.0
Attachements : Cover.jpg

Видео
Идентификатор : 1
Формат : AVC
Формат/Информация : Advanced Video Codec
Профиль формата : High@L4
Параметр CABAC формата : Да
Параметр ReFrames формата : 13 кадров
Идентификатор кодека : V_MPEG4/ISO/AVC
Продолжительность : 1 ч. 47 м.
Битрейт : 4500 Кбит/сек
Ширина : 1150 пикселей
Высота : 484 пикселя
Соотношение сторон : 2,40:1
Режим частоты кадров : Постоянный
Частота кадров : 23,976 кадра/сек
Цветовое пространство : YUV
Субдискретизация насыщенности : 4:2:0
Битовая глубина : 8 бит
Тип развёртки : Прогрессивная
Бит/(Пиксели*Кадры) : 0.337
Размер потока : 3,29 Гбайт (82%)
Заголовок : Последнее испытание Шаолиня / Деревянные люди Шаолиня / Shaolin Wooden Men / Shao Lin mu ren xiang (1976) BDRip-AVC by HQCLUB [Elheym]
Библиотека кодирования : x264 core 146 r0+2586 e393126 t_mod_Custom [8-bit@all X86_64]
Настройки программы : cabac=1 / ref=13 / deblock=1:-3:-2 / analyse=0x3:0x113 / me=umh / subme=11 / psy=1 / fade_compensate=0.00 / psy_rd=1.05:0.00 / mixed_ref=1 / me_range=32 / chroma_me=1 / trellis=2 / 8x8dct=1 / cqm=0 / deadzone=21,11 / fast_pskip=0 / chroma_qp_offset=-2 / threads=6 / lookahead_threads=2 / sliced_threads=0 / nr=0 / decimate=0 / interlaced=0 / bluray_compat=0 / constrained_intra=0 / fgo=0 / bframes=12 / b_pyramid=2 / b_adapt=2 / b_bias=0 / direct=3 / weightb=1 / open_gop=0 / weightp=2 / keyint=240 / keyint_min=23 / scenecut=40 / intra_refresh=0 / rc_lookahead=80 / rc=2pass / mbtree=0 / bitrate=4500 / ratetol=1.0 / qcomp=0.80 / qpmin=0:0:0 / qpmax=69:69:69 / qpstep=4 / cplxblur=20.0 / qblur=0.5 / vbv_maxrate=20000 / vbv_bufsize=25000 / nal_hrd=none / filler=0 / ip_ratio=1.40 / pb_ratio=1.30 / aq=2:0.60 / aq-sensitivity=17.00 / aq-factor=1.00:1.00:1.00 / aq2=0 / aq3=0
Язык : Chinese
Default : Да
Forced : Нет

Аудио #1
Идентификатор : 2
Формат : AC-3
Формат/Информация : Audio Coding 3
Расширение режима : CM (complete main)
Параметр Endianness формата : Big
Идентификатор кодека : A_AC3
Продолжительность : 1 ч. 47 м.
Вид битрейта : Постоянный
Битрейт : 192 Кбит/сек
Каналы : 2 канала
Расположение каналов : Front: L R
Частота : 48,0 КГц
Метод сжатия : С потерями
Размер потока : 147 Мбайт (4%)
Заголовок : АС3 2.0 @ 192 kbps - MVO, DTV
Язык : Russian
Default : Нет
Forced : Нет

Аудио #2
Идентификатор : 3
Формат : AC-3
Формат/Информация : Audio Coding 3
Расширение режима : CM (complete main)
Параметр Endianness формата : Big
Идентификатор кодека : A_AC3
Продолжительность : 1 ч. 47 м.
Вид битрейта : Постоянный
Битрейт : 192 Кбит/сек
Каналы : 2 канала
Расположение каналов : Front: L R
Частота : 48,0 КГц
Метод сжатия : С потерями
Размер потока : 147 Мбайт (4%)
Заголовок : АС3 2.0 @ 192 kbps - MVO, Inis
Язык : Russian
Default : Нет
Forced : Нет

Аудио #3
Идентификатор : 4
Формат : AC-3
Формат/Информация : Audio Coding 3
Расширение режима : CM (complete main)
Параметр Endianness формата : Big
Идентификатор кодека : A_AC3
Продолжительность : 1 ч. 47 м.
Вид битрейта : Постоянный
Битрейт : 448 Кбит/сек
Каналы : 6 каналов
Расположение каналов : Front: L C R, Side: L R, LFE
Частота : 48,0 КГц
Метод сжатия : С потерями
Размер потока : 343 Мбайт (8%)
Заголовок : АС3 5.1 @ 448 kbps - Original
Язык : Chinese
Default : Нет
Forced : Нет

Текст #1
Идентификатор : 5
Формат : UTF-8
Идентификатор кодека : S_TEXT/UTF8
Идентификатор кодека/Информация : UTF-8 Plain Text
Заголовок : Full [by Gellard]
Язык : Russian
Default : Нет
Forced : Нет

Текст #2
Идентификатор : 6
Формат : UTF-8
Идентификатор кодека : S_TEXT/UTF8
Идентификатор кодека/Информация : UTF-8 Plain Text
Заголовок : Full
Язык : English
Default : Нет
Forced : Нет

Меню
00:00:00.000 : :Chapter 01
00:06:07.283 : :Chapter 02
00:10:28.085 : :Chapter 03
00:18:43.955 : :Chapter 04
00:23:30.367 : :Chapter 05
00:29:00.071 : :Chapter 06
00:33:28.506 : :Chapter 07
00:40:34.181 : :Chapter 08
00:44:27.998 : :Chapter 09
00:47:51.034 : :Chapter 10
00:54:12.373 : :Chapter 11
00:58:27.629 : :Chapter 12
01:04:08.427 : :Chapter 13
01:13:17.643 : :Chapter 14
01:23:20.578 : :Chapter 15
01:29:33.658 : :Chapter 16
01:32:08.439 : :Chapter 17
01:37:14.912 : :Chapter 18
01:42:20.259 : :Chapter 19
01:46:19.581 : :Chapter 20
01:47:00.247 : :Chapter 21
01:47:07.212 : :Chapter 22

"x264 log"

x264 [info]: frame I:1014 Avg QP:16.54 size: 73187
x264 [info]: frame P:36534 Avg QP:19.03 size: 36988
x264 [info]: frame B:116576 Avg QP:21.11 size: 18791

x264 [info]: consecutive B-frames: 3.2% 4.9% 9.6% 24.3% 13.1% 30.3% 5.9% 3.3% 2.0% 1.2% 0.9% 0.9% 0.3%

x264 [info]: ref P L0: 34.9% 10.8% 15.8% 8.0% 6.5% 5.2% 4.6% 2.8% 2.6% 2.2% 2.1% 1.9% 1.9% 0.6% 0.0%
x264 [info]: ref B L0: 60.2% 13.8% 7.3% 4.3% 3.4% 3.0% 2.5% 1.6% 1.4% 1.3% 0.8% 0.4%
x264 [info]: ref B L1: 90.5% 9.5%

Цитата:

За дорожку №1 спасибо MacSim47, за дорожки №2 спасибо _Jackie_Chan_. Синхронизация с Blu-Ray - Gellard.
Перевод субтитров с английского - Gellard.


Ссылки для скачивания:

http//bt.hqclub.net/files/ok.png Торрент: Последнее испытание Шаолиня / Деревянные люди Шаолиня / Shaolin Wooden Men / Shao Lin mu ren xiang (1976) BDRip-AVC

Лучшая онлайн игра!


Публикация материалов сайта на сторонних ресурсах возможна только в неизменном виде.


Обсудить релиз на форуме

Вас также может заинтересовать:


  • 5
 (Голосов: 2)


Распечатать новость на принтере Боевик
Обновлено: 11.06.2015 - 11:12