Вас Приветствует Релиз-группа HQCLUB


Помощь ресурсу, очень ВАЖНО!!!



.


WELCOME
Добро пожаловать в наше интернет - сообщество!

Всех нас объединяет одна страсть - страсть к высококачественному кино. А это наш сайт. Ежедневно здесь мы публикуем десятки качественных, свежих, а порой и эксклюзивных релизов, которые Вы можете скачать совершенно бесплатно и без каких-либо регистраций. Посему рекомендуем Вам добавить HQClub себе в закладки, а также подписаться на нашу ленту новостей, чтобы всегда быть в курсе всех событий. Ну а если Вы такой же синий фил, как и мы, то милости просим на наш форум. И в заключение, попробуйте зарегистрироваться, ведь не так это и сложно и займет всего лишь пару минут! Вот увидите, Вам у нас понравится и Вы вольетесь в наш дружный коллектив! Ну а пока - осматривайтесь = )
Мы рады Вам !





Последнее испытание Шаолиня / Деревянные люди Шаолиня / Shaolin Wooden Men / Shao Lin mu ren xiang (1976) BDRip 1080p

Оформил: Elheym | 12 июня 2015 - 11:33:24 | Обращений: 630 {bookmarks_news}

http//lostpic.net/orig_images/6/8/c/68cedbd7eb8d011bea6461e02b0447ea.jpg

Информация о фильме:
Название: Последнее испытание Шаолиня
Оригинальное название: Shao Lin mu ren xiang
Год выхода: 1976
Жанр: боевик
Режиссер: Чи-Хва Чен / Chi-Hwa Chen
В ролях: Джеки Чан, Чун-ер Ланг, Кан Чин, Чан Пин-юй, И-фэй Чанг, Лу Чианг Чао, , Цзинь Цзян, Хсин Чин, Кан Хо

О фильме: Молодой парень по прозвищу Молчун — сирота, который принимает обет молчания после гибели своего отца от рук мастера боевых искусств. Проживая в шаолиньском монастыре, Молчун сближается с опасным заключённым, который обучает его секретным способам смертельного кунг-фу. Заметив упорство и стремление юноши стать мастером кунг-фу, мастера обучают его другим техникам этого боевого искусства. Молчун преодолевает последнее испытание Шаолиня и отправляется на поиски убийцы своего отца…

http//rating.kinopoisk.ru/24732.gif http//tracker.0day.kiev.ua/imdb/imdb_tt0075201.gif

Релиз от - http//hqclub.net/images/hqclub.png
Автор рипа: Elheym

Выпущено: Тайвань, Гонконг ‖ Lo Wei Motion Picture Co., Toei Central Films
Продолжительность: 01:47:08
Перевод 1: Профессиональный (многоголосый, закадровый) ДТВ
Перевод 2: Профессиональный (многоголосый, закадровый) Инис
Перевод 3: Профессиональный (одноголосый, закадровый) Акцент по заказу АСГ Видеофильм
Перевод 4: Авторский (одноголосый, закадровый) Андрей Дольский
Оригинальная аудиодорожка: китайская
Субтитры: русские (полные), английские (полные)
Главы: присутствуют, сохранены оригинальные

Файл:
Формат: MKV
Качество: BDRip 1080p (источник: http//i28.fastpic.ru/big/2011/1013/a8/a3d28e80c9544f4c572189fc892ea8.gif от Gellard / Blu-ray JAP Remux [SHAOLIN_WOODEN_MEN_1976_HDCLUB] / 1080p)
Видео: 1920x808 (2.40:1), 23.976 fps, MPEG-4 AVC, ~12800 kbps avg, 0.344 bit/pixel
Аудио #1: 48 kHz, AC3 Dolby Digital, 2/0 (L,R) ch, ~192 kbps avg (MVO.DTV)
Аудио #2: 48 kHz, AC3 Dolby Digital, 2/0 (L,R) ch, ~192 kbps avg (MVO.INIS)
Аудио #3: 48 kHz, AC3 Dolby Digital, 2/0 (L,R) ch, ~192 kbps avg (VO.AKCENT)
Аудио #4: 48 kHz, AC3 Dolby Digital, 2/0 (L,R) ch, ~192 kbps avg (AVO.DOLSKIY)
Аудио #5: 48 kHz, AC3 Dolby Digital, 2/0 (L,R) ch, ~192 kbps avg (ENG.DUB)
Аудио #6: 48 kHz, DTS, 3/2 (L,C,R,l,r) + LFE ch, ~1509 kbps avg (CHI)
Размер: 11.4 GB
Сэмпл: скачать

http//lostpic.net/thumbs_images/0/6/4/064a402a863a041afe951e3e3614f50f.png http//lostpic.net/thumbs_images/c/4/a/c4a15ccd2f823ad3869a5c8829c2fc1c.png http//lostpic.net/thumbs_images/1/b/d/1bd6794a8ccc6aff189641f7bb9a8b79.png http//lostpic.net/thumbs_images/6/4/f/64fee387f546f351ce81f79a335bec44.png

"MediaInfo"

Уникальный идентификатор : 200105491706654441527925776741282281256 (0x968AEA753D0F38608AD595A883EEF728)
Полное имя : Shaolin.Wooden.Men.1976.1080p.BluRay.4xRus.Eng.Chi.-HQCLUB.mkv
Формат : Matroska
Версия формата : Version 2
Размер файла : 11,4 Гбайт
Продолжительность : 1 ч. 47 м.
Общий поток : 15,3 Мбит/сек
Название фильма : Последнее испытание Шаолиня / Деревянные люди Шаолиня / Shaolin Wooden Men / Shao Lin mu ren xiang (1976) BDRip 1080p by HQCLUB [Elheym]
Дата кодирования : UTC 2015-06-12 07:41:44
Программа кодирования : mkvmerge v5.2.0 ('I can't explain') built on Dec 18 2011 18:12:03
Библиотека кодирования : libebml v1.2.3 + libmatroska v1.3.0
Attachements : Cover.jpg

Видео
Идентификатор : 1
Формат : AVC
Формат/Информация : Advanced Video Codec
Профиль формата : High@L4.1
Параметр CABAC формата : Да
Параметр ReFrames формата : 4 кадра
Идентификатор кодека : V_MPEG4/ISO/AVC
Продолжительность : 1 ч. 47 м.
Битрейт : 12,8 Мбит/сек
Ширина : 1920 пикселей
Высота : 808 пикселей
Соотношение сторон : 2,40:1
Режим частоты кадров : Постоянный
Частота кадров : 23,976 кадра/сек
Цветовое пространство : YUV
Субдискретизация насыщенности : 4:2:0
Битовая глубина : 8 бит
Тип развёртки : Прогрессивная
Бит/(Пиксели*Кадры) : 0.344
Размер потока : 9,35 Гбайт (82%)
Заголовок : Последнее испытание Шаолиня / Деревянные люди Шаолиня / Shaolin Wooden Men / Shao Lin mu ren xiang (1976) BDRip 1080p by HQCLUB [Elheym]
Библиотека кодирования : x264 core 146 r0+2586 e393126 t_mod_Custom [8-bit@all X86_64]
Настройки программы : cabac=1 / ref=4 / deblock=1:-3:-2 / analyse=0x3:0x113 / me=umh / subme=11 / psy=1 / fade_compensate=0.00 / psy_rd=1.05:0.00 / mixed_ref=1 / me_range=32 / chroma_me=1 / trellis=2 / 8x8dct=1 / cqm=0 / deadzone=21,11 / fast_pskip=0 / chroma_qp_offset=-2 / threads=6 / lookahead_threads=2 / sliced_threads=0 / nr=0 / decimate=0 / interlaced=0 / bluray_compat=0 / constrained_intra=0 / fgo=0 / bframes=11 / b_pyramid=2 / b_adapt=2 / b_bias=0 / direct=3 / weightb=1 / open_gop=0 / weightp=2 / keyint=240 / keyint_min=23 / scenecut=40 / intra_refresh=0 / rc_lookahead=80 / rc=2pass / mbtree=0 / bitrate=12800 / ratetol=1.0 / qcomp=0.75 / qpmin=0:0:0 / qpmax=69:69:69 / qpstep=4 / cplxblur=20.0 / qblur=0.5 / vbv_maxrate=50000 / vbv_bufsize=62500 / nal_hrd=none / filler=0 / ip_ratio=1.40 / pb_ratio=1.30 / aq=2:0.70 / aq-sensitivity=14.00 / aq-factor=1.00:1.00:1.00 / aq2=0 / aq3=0
Язык : Chinese
Default : Да
Forced : Нет

Аудио #1
Идентификатор : 2
Формат : AC-3
Формат/Информация : Audio Coding 3
Расширение режима : CM (complete main)
Параметр Endianness формата : Big
Идентификатор кодека : A_AC3
Продолжительность : 1 ч. 47 м.
Вид битрейта : Постоянный
Битрейт : 192 Кбит/сек
Каналы : 2 канала
Расположение каналов : Front: L R
Частота : 48,0 КГц
Метод сжатия : С потерями
Размер потока : 147 Мбайт (1%)
Заголовок : АС3 2.0 @ 192 kbps - MVO, DTV
Язык : Russian
Default : Нет
Forced : Нет

Аудио #2
Идентификатор : 3
Формат : AC-3
Формат/Информация : Audio Coding 3
Расширение режима : CM (complete main)
Параметр Endianness формата : Big
Идентификатор кодека : A_AC3
Продолжительность : 1 ч. 47 м.
Вид битрейта : Постоянный
Битрейт : 192 Кбит/сек
Каналы : 2 канала
Расположение каналов : Front: L R
Частота : 48,0 КГц
Метод сжатия : С потерями
Размер потока : 147 Мбайт (1%)
Заголовок : АС3 2.0 @ 192 kbps - MVO, Inis
Язык : Russian
Default : Нет
Forced : Нет

Аудио #3
Идентификатор : 4
Формат : AC-3
Формат/Информация : Audio Coding 3
Расширение режима : CM (complete main)
Параметр Endianness формата : Big
Идентификатор кодека : A_AC3
Продолжительность : 1 ч. 47 м.
Вид битрейта : Постоянный
Битрейт : 192 Кбит/сек
Каналы : 2 канала
Расположение каналов : Front: L R
Частота : 48,0 КГц
Метод сжатия : С потерями
Размер потока : 147 Мбайт (1%)
Заголовок : АС3 2.0 @ 192 kbps - VO, Akcent
Язык : Russian
Default : Нет
Forced : Нет

Аудио #4
Идентификатор : 5
Формат : AC-3
Формат/Информация : Audio Coding 3
Расширение режима : CM (complete main)
Параметр Endianness формата : Big
Идентификатор кодека : A_AC3
Продолжительность : 1 ч. 47 м.
Вид битрейта : Постоянный
Битрейт : 192 Кбит/сек
Каналы : 2 канала
Расположение каналов : Front: L R
Частота : 48,0 КГц
Метод сжатия : С потерями
Размер потока : 147 Мбайт (1%)
Заголовок : АС3 2.0 @ 192 kbps - AVO, Dolskiy
Язык : Russian
Default : Нет
Forced : Нет

Аудио #5
Идентификатор : 6
Формат : AC-3
Формат/Информация : Audio Coding 3
Расширение режима : CM (complete main)
Параметр Endianness формата : Big
Идентификатор кодека : A_AC3
Продолжительность : 1 ч. 47 м.
Вид битрейта : Постоянный
Битрейт : 192 Кбит/сек
Каналы : 2 канала
Расположение каналов : Front: L R
Частота : 48,0 КГц
Метод сжатия : С потерями
Размер потока : 147 Мбайт (1%)
Заголовок : АС3 2.0 @ 192 kbps - Dub
Язык : English
Default : Нет
Forced : Нет

Аудио #6
Идентификатор : 7
Формат : DTS
Формат/Информация : Digital Theater Systems
Режим : 16
Параметр Endianness формата : Big
Идентификатор кодека : A_DTS
Продолжительность : 1 ч. 47 м.
Вид битрейта : Постоянный
Битрейт : 1509 Кбит/сек
Каналы : 6 каналов
Расположение каналов : Front: L C R, Side: L R, LFE
Частота : 48,0 КГц
Битовая глубина : 24 бит
Метод сжатия : С потерями
Размер потока : 1,13 Гбайт (10%)
Заголовок : DTS 5.1 @ 1509 kbps - Original
Язык : Chinese
Default : Нет
Forced : Нет

Текст #1
Идентификатор : 8
Формат : UTF-8
Идентификатор кодека : S_TEXT/UTF8
Идентификатор кодека/Информация : UTF-8 Plain Text
Заголовок : Full [by Gellard]
Язык : Russian
Default : Нет
Forced : Нет

Текст #2
Идентификатор : 9
Формат : UTF-8
Идентификатор кодека : S_TEXT/UTF8
Идентификатор кодека/Информация : UTF-8 Plain Text
Заголовок : Full
Язык : English
Default : Нет
Forced : Нет

Меню
00:00:00.000 : :Chapter 01
...
01:47:07.212 : :Chapter 22

"x264 log"

x264 [info]: frame I:943 Avg QP:16.34 size:141779
x264 [info]: frame P:38291 Avg QP:17.95 size: 92956
x264 [info]: frame B:114890 Avg QP:20.00 size: 57380

x264 [info]: consecutive B-frames: 4.0% 5.9% 10.5% 22.9% 11.8% 31.3% 5.7% 3.7% 1.6% 1.2% 0.9% 0.6%

x264 [info]: ref P L0: 44.6% 12.0% 24.6% 14.9% 3.8% 0.1%
x264 [info]: ref B L0: 81.5% 15.0% 3.5%
x264 [info]: ref B L1: 88.9% 11.1%

Цитата:

За дорожку №1 спасибо MacSim47, за дорожки №2, 3 спасибо _Jackie_Chan_, за дорожки №4, 5 спасибо Doronetty.
Синхронизация с Blu-Ray - Gellard.
В дорожках №3, 4 отсутствовал перевод в нескольких фразах. Спасибо Doronetty за доозвучку этих фраз.
Перевод субтитров с английского - Gellard.


Ссылки для скачивания:

http//bt.hqclub.net/files/ok.png Торрент: Последнее испытание Шаолиня / Деревянные люди Шаолиня / Shaolin Wooden Men / Shao Lin mu ren xiang (1976) BDRip 1080p

Лучшая онлайн игра!


Публикация материалов сайта на сторонних ресурсах возможна только в неизменном виде.


Обсудить релиз на форуме

Вас также может заинтересовать:


  • 0
 (Голосов: 0)


Распечатать новость на принтере Боевик
Обновлено: 12.06.2015 - 11:33