Вас Приветствует Релиз-группа HQCLUB


Помощь ресурсу, очень ВАЖНО!!!



.


WELCOME
Добро пожаловать в наше интернет - сообщество!

Всех нас объединяет одна страсть - страсть к высококачественному кино. А это наш сайт. Ежедневно здесь мы публикуем десятки качественных, свежих, а порой и эксклюзивных релизов, которые Вы можете скачать совершенно бесплатно и без каких-либо регистраций. Посему рекомендуем Вам добавить HQClub себе в закладки, а также подписаться на нашу ленту новостей, чтобы всегда быть в курсе всех событий. Ну а если Вы такой же синий фил, как и мы, то милости просим на наш форум. И в заключение, попробуйте зарегистрироваться, ведь не так это и сложно и займет всего лишь пару минут! Вот увидите, Вам у нас понравится и Вы вольетесь в наш дружный коллектив! Ну а пока - осматривайтесь = )
Мы рады Вам !





Флиппер / Flipper (1996) BDRip-AVC

Оформил: Elheym | 24 ноября 2014 - 23:31:01 | Комментариев: 1 | Обращений: 744 {bookmarks_news}

http//lostpic.net/orig_images/5/7/e/eebd5a46a70a2cfaeb5ac9971a919f.jpg

Информация о фильме:
Название: Флиппер
Оригинальное название: Flipper
Год выхода: 1996
Жанр: приключения, семейный
Режиссер: Алан Шапиро
В главных ролях: Элайджа Вуд, Пол Хоган, Джонатан Бэнкс, Роберт Дикон, Энн Кэри, Марк Каселла, Люк Хэлпин, Билл Келли, Челси Филд, Джейсон Фучс, Lindsay Treco, Джессика Уэссон, Мэл Джонс, Louis Seeger Crume, Билл Нолан, Айзек Хейз, Мэри Джо Фараси, Эллисон Бертолино, Брайон Уильямс

О фильме:
Мальчик приезжает к своему дяде на остров, где ему все не по душе — друзей нет, на рок-концерт не сходить, а на ужин только макароны. Но все меняется после того, как он спасает на рыбалке дельфина Флиппера, который становится его другом, и знакомится с симпатичной девочкой.

«Лучший друг детей и взрослых»



http//rating.kinopoisk.ru/54.gif http//tracker.0day.kiev.ua/imdb/imdb_tt0116322.gif

Релиз от - http//hqclub.net/images/hqclub.png
Автор рипа: Elheym

Выпущено: США, American Films, The Bubble Factory, Universal Pictures
Продолжительность: 01:35:21
Перевод 1: Профессиональный (многоголосый, закадровый) R5
Перевод 2: Профессиональный (двухголосый, закадровый) Премьер Видео Фильм
Перевод 3: Авторский (одноголосый, закадровый) П. Санаев
Оригинальная аудио дорожка: английский
Субтитры: русские (полные), английские (полные, полные SDH)
Главы: присутствуют, сохранены оригинальные

Файл:
Формат: MKV
Качество: BDRip-AVC (источник: rutracker / Blu-ray Remux / 1080p)
Видео: 1100x468 (2.35:1), 23.976 fps, MPEG-4 AVC, ~3510 kbps avg, 0.284 bit/pixel
Аудио #1: 48 kHz, AC3 Dolby Digital, 3/2 (L,C,R,l,r) + LFE ch, ~384 kbps avg (MVO.R5)
Аудио #2: 48 kHz, AC3 Dolby Digital, 2/0 (L,R) ch, ~224 kbps avg (DVO.PREMIER)
Аудио #3: 48 kHz, AC3 Dolby Digital, 3/2 (L,C,R,l,r) + LFE ch, ~384 kbps avg (ENG)
Аудио #4: 48 kHz, AC3 Dolby Digital, 2/0 (L,R) ch, ~192 kbps avg (AVO.SANAEV) (отдельно)
Размер: 3.05 GB
Сэмпл: скачать

http//lostpic.net/thumbs_images/f/4/4/f44229f865cc4c03d4c6981dd32de2.png http//lostpic.net/thumbs_images/2/3/5/2354c4c2a9ff647675a4b4dd1a0f6a.png http//lostpic.net/thumbs_images/2/b/f/2bfe0c1b50bb431c8c140e1292721dc4.png http//lostpic.net/thumbs_images/9/c/2/9c2a846d42995a6d771753af5116fea9.png http//lostpic.net/thumbs_images/a/d/4/ad421b06d9f2450bd2335d2ae40e2b7d.png http//lostpic.net/thumbs_images/8/b/0/8b0a6004a07e6793ac6fa899da706edf.png

"MediaInfo"

Уникальный идентификатор : 228143656698094189241006064183360812926 (0xABA2DEB8B15134E9A9F0E7F95656F77E)
Полное имя : Flipper.1996.TRIPLE.BDRip-AVC.x264.AC3.-HQCLUB.mkv
Формат : Matroska
Версия формата : Version 2
Размер файла : 3,06 Гбайт
Продолжительность : 1 ч. 35 м.
Общий поток : 4593 Кбит/сек
Дата кодирования : UTC 2014-11-24 18:43:26
Программа кодирования : mkvmerge v5.2.0 ('I can't explain') built on Dec 18 2011 18:12:03
Библиотека кодирования : libebml v1.2.3 + libmatroska v1.3.0

Видео
Идентификатор : 1
Формат : AVC
Формат/Информация : Advanced Video Codec
Профиль формата : High@L4.1
Параметр CABAC формата : Да
Параметр ReFrames формата : 14 кадров
Идентификатор кодека : V_MPEG4/ISO/AVC
Продолжительность : 1 ч. 35 м.
Битрейт : 3510 Кбит/сек
Ширина : 1100 пикселей
Высота : 468 пикселей
Соотношение сторон : 2,35:1
Режим частоты кадров : Постоянный
Частота кадров : 23,976 кадра/сек
Цветовое пространство : YUV
Субдискретизация насыщенности : 4:2:0
Битовая глубина : 8 бит
Тип развёртки : Прогрессивная
Бит/(Пиксели*Кадры) : 0.284
Размер потока : 2,34 Гбайт (76%)
Заголовок : Флиппер / Flipper (1996) BDRip-AVC by HQCLUB [Elheym]
Библиотека кодирования : x264 core 142 r2479kMod dd79a61
Настройки программы : cabac=1 / ref=14 / deblock=1:-3:-2 / analyse=0x3:0x133 / me=umh / subme=11 / psy=1 / fade_compensate=0.00 / psy_rd=1.08:0.00 / mixed_ref=1 / me_range=32 / chroma_me=1 / trellis=2 / 8x8dct=1 / cqm=0 / deadzone=21,11 / fast_pskip=0 / chroma_qp_offset=-4 / threads=6 / lookahead_threads=1 / sliced_threads=0 / nr=0 / decimate=0 / interlaced=0 / bluray_compat=0 / constrained_intra=0 / fgo=0 / bframes=13 / b_pyramid=2 / b_adapt=2 / b_bias=0 / direct=1 / weightb=1 / open_gop=0 / weightp=2 / keyint=230 / keyint_min=23 / scenecut=40 / intra_refresh=0 / rc_lookahead=40 / rc=crf / mbtree=1 / crf=18.0000 / qcomp=0.70 / qpmin=0 / qpmax=69 / qpstep=4 / vbv_maxrate=50000 / vbv_bufsize=62500 / crf_max=0.0 / nal_hrd=none / filler=0 / ip_ratio=1.40 / aq=2:0.90 / zones=130920,137188,q=38
Язык : English
Default : Да
Forced : Нет

Аудио #1
Идентификатор : 2
Формат : AC-3
Формат/Информация : Audio Coding 3
Расширение режима : CM (complete main)
Параметр Endianness формата : Big
Идентификатор кодека : A_AC3
Продолжительность : 1 ч. 35 м.
Вид битрейта : Постоянный
Битрейт : 384 Кбит/сек
Каналы : 6 каналов
Расположение каналов : Front: L C R, Side: L R, LFE
Частота : 48,0 КГц
Битовая глубина : 16 бит
Метод сжатия : С потерями
Размер потока : 262 Мбайт (8%)
Заголовок : АС3 5.1 @ 384 kbps - MVO
Язык : Russian
Default : Нет
Forced : Нет

Аудио #2
Идентификатор : 3
Формат : AC-3
Формат/Информация : Audio Coding 3
Расширение режима : CM (complete main)
Параметр Endianness формата : Big
Идентификатор кодека : A_AC3
Продолжительность : 1 ч. 35 м.
Вид битрейта : Постоянный
Битрейт : 224 Кбит/сек
Каналы : 2 канала
Расположение каналов : Front: L R
Частота : 48,0 КГц
Битовая глубина : 16 бит
Метод сжатия : С потерями
Размер потока : 153 Мбайт (5%)
Заголовок : АС3 2.0 @ 224 kbps - DVO, Prem'er Video Fil'm [VHSRip]
Язык : Russian
Default : Нет
Forced : Нет

Аудио #3
Идентификатор : 4
Формат : AC-3
Формат/Информация : Audio Coding 3
Расширение режима : CM (complete main)
Параметр Endianness формата : Big
Идентификатор кодека : A_AC3
Продолжительность : 1 ч. 35 м.
Вид битрейта : Постоянный
Битрейт : 384 Кбит/сек
Каналы : 6 каналов
Расположение каналов : Front: L C R, Side: L R, LFE
Частота : 48,0 КГц
Битовая глубина : 16 бит
Метод сжатия : С потерями
Размер потока : 262 Мбайт (8%)
Заголовок : АС3 5.1 @ 384 kbps - Original
Язык : English
Default : Нет
Forced : Нет

Текст #1
Идентификатор : 5
Формат : UTF-8
Идентификатор кодека : S_TEXT/UTF8
Идентификатор кодека/Информация : UTF-8 Plain Text
Заголовок : Full
Язык : Russian
Default : Нет
Forced : Нет

Текст #2
Идентификатор : 6
Формат : UTF-8
Идентификатор кодека : S_TEXT/UTF8
Идентификатор кодека/Информация : UTF-8 Plain Text
Заголовок : Full
Язык : English
Default : Нет
Forced : Нет

Текст #3
Идентификатор : 7
Формат : UTF-8
Идентификатор кодека : S_TEXT/UTF8
Идентификатор кодека/Информация : UTF-8 Plain Text
Заголовок : Full SDH
Язык : English
Default : Нет
Forced : Нет

Меню
00:00:00.000 : en:00:00:00.000
00:04:05.620 : en:00:04:05.620
00:09:22.020 : en:00:09:22.020
00:14:11.893 : en:00:14:11.893
00:19:19.450 : en:00:19:19.450
00:24:41.689 : en:00:24:41.689
00:29:37.234 : en:00:29:37.234
00:35:33.465 : en:00:35:33.465
00:39:28.658 : en:00:39:28.658
00:45:47.536 : en:00:45:47.536
00:50:59.682 : en:00:50:59.682
00:55:26.114 : en:00:55:26.114
00:59:17.888 : en:00:59:17.888
01:05:54.284 : en:01:05:54.284
01:11:29.327 : en:01:11:29.327
01:17:35.526 : en:01:17:35.526
01:23:54.571 : en:01:23:54.571
01:30:14.618 : en:01:30:14.618

"x264 log"

x264 [info]: frame I:1112 Avg QP:15.93 size: 86896
x264 [info]: frame P:29414 Avg QP:20.23 size: 32437
x264 [info]: frame B:106663 Avg QP:21.67 size: 14280

x264 [info]: consecutive B-frames: 1.5% 1.7% 5.1% 34.2% 16.9% 29.1% 4.6% 3.6% 1.2% 0.7% 0.4% 0.6% 0.2% 0.3%

x264 [info]: ref P L0: 43.3% 11.9% 16.1% 6.5% 5.2% 3.8% 3.4% 1.9% 1.7% 1.4% 1.3% 1.1% 1.1% 1.0% 0.2% 0.0%
x264 [info]: ref B L0: 73.8% 10.5% 5.2% 2.6% 2.0% 1.6% 1.3% 0.8% 0.7% 0.6% 0.5% 0.3% 0.2%
x264 [info]: ref B L1: 93.4% 6.6


Цитата:
За Санаева с вхс спасибо клубу Феникс.
За оцифровку с лицензионной видеокассеты перевода Премьер Видео Фильм большое спасибо bora86bora.
Синхрон перевода - JUSTKANT.

Ссылки для скачивания:

http//bt.hqclub.net/files/ok.png Торрент: Флиппер / Flipper (1996) BDRip-AVC

Лучшая онлайн игра!


Публикация материалов сайта на сторонних ресурсах возможна только в неизменном виде.


Обсудить релиз на форуме

Вас также может заинтересовать:


  • 5
 (Голосов: 3)


Распечатать новость на принтере Приключения, Семейный

КОММЕНТАРИИ

 №1. ru4lan

Статус: Кинокритик | Новостей: 0 | Комментариев: 2736
ru4lan возьму
~~~

26.11.2014 - 14:27   цитировать