Вас Приветствует Релиз-группа HQCLUB


Помощь ресурсу, очень ВАЖНО!!!



.


WELCOME
Добро пожаловать в наше интернет - сообщество!

Всех нас объединяет одна страсть - страсть к высококачественному кино. А это наш сайт. Ежедневно здесь мы публикуем десятки качественных, свежих, а порой и эксклюзивных релизов, которые Вы можете скачать совершенно бесплатно и без каких-либо регистраций. Посему рекомендуем Вам добавить HQClub себе в закладки, а также подписаться на нашу ленту новостей, чтобы всегда быть в курсе всех событий. Ну а если Вы такой же синий фил, как и мы, то милости просим на наш форум. И в заключение, попробуйте зарегистрироваться, ведь не так это и сложно и займет всего лишь пару минут! Вот увидите, Вам у нас понравится и Вы вольетесь в наш дружный коллектив! Ну а пока - осматривайтесь = )
Мы рады Вам !





Ледниковый период / Ice Age (2002) 720p BDRip

Оформил: DaniLch | 10 июля 2011 - 14:16:09 | Обращений: 2407 {bookmarks_news}

http//lostpic.net/images/2ef271b27e9f28561e2b1fabbb0cea9e.png

Название: Ледниковый период
Оригинальное название: Ice Age
Год выхода: 2002
Жанр: мультфильм, приключения, комедия, семейный
Режиссёр: Крис Уэдж / Chris Wedge, Карлос Салдана / Carlos Saldanha
Роли озвучивали: Рэй Романо, Джон Легуизамо, Денис Лири, Горан Вишнич, Джек Блэк, Седрик «Развлекатель», Стивен Рут, Дидрих Бадер, Алан Тьюдик, Лорри Бэгли

О фильме: Веселые и опасные приключения героев. 20 тыс. лет назад. Чтобы избежать приближающегося из-за наступления ледникового периода холода, животные мигрируют на юг. Однако некоторые из них все-таки решают остаться — одинокий, угрюмый мамонт Манфред, а также бесшабашный ленивец Сид.

Случайно эта парочка наталкивается на человеческого детеныша. Они решаются вернуть его людям и отправляются в путешествие. По пути они встречают саблезубого хитрого тигра. И теперь этой веселой компании предстоят забавные приключения!

http//www.kinopoisk.ru/rating/707.gif
КиноПоиск Топ250: #94

Релиз от - http//hqclub.net/images/hqclub.png
Автор релиза: DaniLch

Выпущено: http//lostpic.net/images/ac5cb4a618da65239cf7be53b9ab78.gif США | 20th Century Fox Animation
Продолжительность: 01:21:04

Рип от HiDt

Формат: MKV
Видео: 1280x694 (1.84:1), 23.976 fps, x264@L4.1, 2pass, ~5626 kbps
Аудио #1: Russian: 48 kHz/24-bit, DTS, 3/2 (L,C,R,l,r) + LFE ch, ~768 kbps |Дубляж, Blu-ray CEE|
Аудио #2: English: 48 kHz/24-bit, DTS, 3/2 (L,C,R,l,r) + LFE ch, ~1536 kbps
Субтитры: русские, английские
Размер: 4.48 GB

http//lostpic.net/thumbs/407212343cec4073c6baceb472594e4b.png http//lostpic.net/thumbs/bbb2c4dffbd3e6d9b14fcbde3c429d.png http//lostpic.net/thumbs/42286b95c932ebcfc8a2774bf3c7ff12.png http//lostpic.net/thumbs/ad5e02a2c869189afeeb840351aa8383.png

http//bt.hqclub.net/files/ok.png Торрент: Ледниковый период / Ice Age (2002) 720p BDRip

MediaInfo
General
Complete name : Lednikovyj.period.2002.BDRip.720p.H264.DTS.-HQCLUB.mkv
Format : Matroska
File size : 4.48 GiB
Duration : 1h 21mn
Overall bit rate : 7 901 Kbps
Movie name : 720p BDRip by HiDt
Encoded date : UTC 2011-06-17 17:58:22
Writing application : mkvmerge v4.8.0 ('I Got The...') built on May 24 2011 03:12:58
Writing library : libebml v1.2.0 + libmatroska v1.1.0

Video
ID : 1
Format : AVC
Format/Info : Advanced Video Codec
Format profile : High@L4.1
Format settings, CABAC : Yes
Format settings, ReFrames : 8 frames
Codec ID : V_MPEG4/ISO/AVC
Duration : 1h 21mn
Bit rate : 5 626 Kbps
Width : 1 280 pixels
Height : 694 pixels
Display aspect ratio : 16:9
Frame rate : 23.976 fps
Color space : YUV
Chroma subsampling : 4:2:0
Bit depth : 8 bits
Scan type : Progressive
Bits/(Pixel*Frame) : 0.264
Stream size : 3.11 GiB (69%)
Title : Ледниковый период / Ice Age (2002)
Writing library : x264 core 77 r1292 e381f6d
Encoding settings : cabac=1 / ref=8 / deblock=1:-3:-3 / analyse=0x3:0x113 / me=tesa / subme=10 / psy=1 / psy_rd=0.9:0.0 / mixed_ref=1 / me_range=32 / chroma_me=1 / trellis=2 / 8x8dct=1 / cqm=0 / deadzone=21,11 / chroma_qp_offset=-2 / threads=6 / nr=0 / decimate=0 / mbaff=0 / constrained_intra=0 / bframes=9 / b_pyramid=1 / b_adapt=2 / b_bias=0 / direct=3 / wpredb=1 / keyint=250 / keyint_min=25 / scenecut=40 / rc=2pass / mbtree=0 / bitrate=5626 / ratetol=1.0 / qcomp=0.60 / qpmin=10 / qpmax=51 / qpstep=4 / cplxblur=20.0 / qblur=0.5 / ip_ratio=1.40 / pb_ratio=1.30 / aq=1:0.80
Language : English

Audio #1
ID : 2
Format : DTS
Format/Info : Digital Theater Systems
Codec ID : A_DTS
Duration : 1h 21mn
Bit rate mode : Constant
Bit rate : 755 Kbps
Channel(s) : 6 channels
Channel positions : Front: L C R, Side: L R, LFE
Sampling rate : 48.0 KHz
Bit depth : 24 bits
Compression mode : Lossy
Stream size : 438 MiB (10%)
Title : DTS 5.1 @ 768 kbps - Дубляж
Language : Russian

Audio #2
ID : 3
Format : DTS
Format/Info : Digital Theater Systems
Codec ID : A_DTS
Duration : 1h 21mn
Bit rate mode : Constant
Bit rate : 1 510 Kbps
Channel(s) : 6 channels
Channel positions : Front: L C R, Side: L R, LFE
Sampling rate : 48.0 KHz
Bit depth : 24 bits
Compression mode : Lossy
Stream size : 876 MiB (19%)
Title : DTS 5.1 @ 1536 kbps
Language : English

Text #1
ID : 4
Format : UTF-8
Codec ID : S_TEXT/UTF8
Codec ID/Info : UTF-8 Plain Text
Language : Russian

Text #2
ID : 5
Format : UTF-8
Codec ID : S_TEXT/UTF8
Codec ID/Info : UTF-8 Plain Text
Language : English

Menu
00:00:00.000 : en:00:00:00.000
00:03:52.441 : en:00:03:52.441
00:05:21.363 : en:00:05:21.363
00:09:31.488 : en:00:09:31.488
00:14:41.672 : en:00:14:41.672
00:17:47.775 : en:00:17:47.775
00:25:23.689 : en:00:25:23.689
00:27:41.326 : en:00:27:41.326
00:31:26.802 : en:00:31:26.802
00:34:59.931 : en:00:34:59.931
00:42:27.336 : en:00:42:27.336
00:48:15.476 : en:00:48:15.476
00:51:49.982 : en:00:51:49.982
00:53:00.052 : en:00:53:00.052
00:56:03.443 : en:00:56:03.443
00:57:05.881 : en:00:57:05.881
01:00:22.118 : en:01:00:22.118
01:08:13.756 : en:01:08:13.756
01:13:31.824 : en:01:13:31.824
01:15:26.480 : en:01:15:26.480


Лучшая онлайн игра!


Публикация материалов сайта на сторонних ресурсах возможна только в неизменном виде.


Обсудить релиз на форуме

Вас также может заинтересовать:


  • 4
 (Голосов: 13)


Распечатать новость на принтере Анимационный, Мультфильм, Приключения, Комедия, Семейный