Вас Приветствует Релиз-группа HQCLUB


Помощь ресурсу, очень ВАЖНО!!!



.


WELCOME
Добро пожаловать в наше интернет - сообщество!

Всех нас объединяет одна страсть - страсть к высококачественному кино. А это наш сайт. Ежедневно здесь мы публикуем десятки качественных, свежих, а порой и эксклюзивных релизов, которые Вы можете скачать совершенно бесплатно и без каких-либо регистраций. Посему рекомендуем Вам добавить HQClub себе в закладки, а также подписаться на нашу ленту новостей, чтобы всегда быть в курсе всех событий. Ну а если Вы такой же синий фил, как и мы, то милости просим на наш форум. И в заключение, попробуйте зарегистрироваться, ведь не так это и сложно и займет всего лишь пару минут! Вот увидите, Вам у нас понравится и Вы вольетесь в наш дружный коллектив! Ну а пока - осматривайтесь = )
Мы рады Вам !





Angry Birds в кино / Angry Birds (2016) BDRip 1080p

Оформил: jaka | 22 февраля 2017 - 09:34:09 | Обращений: 554 {bookmarks_news}

http//img11.lostpic.net/2017/02/21/bce1746f9e31661b767765e841089bd8.jpg

Информация о фильме:
Название: Angry Birds в кино
Оригинальное название: Angry Birds
Год выхода: 2016
Жанр: мультфильм, боевик, комедия, семейный
Режиссеры: Клэй Кэйтис, Фергал Рейли
Роли озвучивали: Джейсон Судейкис, Джош Гад, Дэнни МакБрайд, Майя Рудольф, Билл Хейдер, Питер Динклэйдж, Шон Пенн, Кигэн-Майкл Ки, Кейт МакКиннон, Тони Хейл

О фильме: Фильм расскажет о том, как началось знаменитое противостояние птичек и свинок, персонажей популярной компьютерной игры, а также раскроет некоторые секреты любимых героев.

https//rating.kinopoisk.ru/609618.gif http//tracker.0day.kiev.ua/imdb/imdb_tt19859.gif

Релиз от - http//hqclub.net/images/hqclub.png http//img11.lostpic.net/2016/12/26/f2565a587874b4bb3d1c7d8ac2f0da47.png
Автор рипа: jaka

Выпущено: США, Финляндия
Продолжительность: 01:37:13
Перевод: Профессиональный (полное дублирование) NORDiC
Субтитры: русские (полные), украинские (полные), английские (полные) (спасибо Elheym)
Главы: присутствуют, сохранены оригинальные

Файл:
Формат: MKV
Качество: BDRip 1080p (источник: HDCLUB / Blu-Ray NORDiC / 1080р)
Видео: 1920x1038 (1.85:1), 23.976 fps, x264 core 148 r2744kMod b97ae06 ~12200 kbps avg, 0.255 bit/pixel
Аудио #1: 48 kHz, AC3 Dolby Digital, 3/2 (L,C,R,l,r) + LFE ch, ~640 kbps avg (RUS)
Аудио #2: 48 kHz, AC3 Dolby Digital, 3/2 (L,C,R,l,r) + LFE ch, ~640 kbps avg (UKR)
Аудио #3: 48 kHz, DTS, 3/2 (L,C,R,l,r) + LFE ch, ~1509 kbps avg (ENG)
Размер: 10,4 Gb
Скачать: Сэмпл

"MediaInfo"

Уникальный идентификатор : 184368374391579259806588677839458302071 (0x8AB40EAB77787922840390C47FC67877)
Полное имя : Angry.Birds.2016.1080p.BluRay.Rus.Ukr.Eng.-HQCLUB.mkv
Формат : Matroska
Версия формата : Version 2
Размер файла : 10,4 Гбайт
Продолжительность : 1 ч. 37 м.
Общий поток : 15,3 Мбит/сек
Дата кодирования : UTC 2017-02-21 17:18:15
Программа кодирования : mkvmerge v5.2.0 ('I can't explain') built on Dec 18 2011 18:12:03
Библиотека кодирования : libebml v1.2.3 + libmatroska v1.3.0
Обложка : Yes
Attachments : cover.jpg

Видео
Идентификатор : 1
Формат : AVC
Формат/Информация : Advanced Video Codec
Профиль формата : High@L4.1
Параметр CABAC формата : Да
Параметр ReFrames формата : 4 кадра
Идентификатор кодека : V_MPEG4/ISO/AVC
Продолжительность : 1 ч. 37 м.
Битрейт : 12,2 Мбит/сек
Ширина : 1920 пикселей
Высота : 1038 пикселей
Соотношение сторон : 1,85:1
Режим частоты кадров : Постоянный
Частота кадров : 23,976 (24000/1001) кадра/сек
Цветовое пространство : YUV
Субдискретизация насыщенности : 4:2:0
Битовая глубина : 8 бит
Тип развёртки : Прогрессивная
Бит/(Пиксели*Кадры) : 0.255
Размер потока : 8,29 Гбайт (80%)
Заголовок : Angry Birds в кино / Angry Birds (2016) BDRip 1080p by jaka
Библиотека кодирования : x264 core 148 r2744kMod b97ae06
Настройки программы : cabac=1 / ref=4 / deblock=1:-3:-2 / analyse=0x3:0x113 / me=umh / subme=10 / psy=1 / fade_compensate=0.00 / psy_rd=0.80:0.00 / mixed_ref=1 / me_range=32 / chroma_me=1 / trellis=2 / 8x8dct=1 / cqm=0 / deadzone=21,11 / fast_pskip=0 / chroma_qp_offset=-2 / threads=12 / lookahead_threads=2 / sliced_threads=0 / nr=0 / decimate=1 / interlaced=0 / bluray_compat=0 / constrained_intra=0 / bframes=7 / b_pyramid=2 / b_adapt=2 / b_bias=0 / direct=3 / weightb=1 / open_gop=0 / weightp=2 / keyint=240 / keyint_min=23 / scenecut=40 / intra_refresh=0 / rc_lookahead=80 / rc=crf / mbtree=0 / crf=16.9000 / qcomp=0.70 / qpmin=0 / qpmax=69 / qpstep=4 / vbv_maxrate=62500 / vbv_bufsize=78125 / crf_max=0.0 / nal_hrd=none / filler=0 / ip_ratio=1.40 / pb_ratio=1.30 / aq=3:1.10
Язык : English
Default : Да
Forced : Нет
Цветовой диапазон : Limited
Основные цвета : BT.709
Характеристики трансфера : BT.709
Коэффициенты матрицы : BT.709

Аудио #1
Идентификатор : 2
Формат : AC-3
Формат/Информация : Audio Coding 3
Расширение режима : CM (complete main)
Параметр Endianness формата : Big
Идентификатор кодека : A_AC3
Продолжительность : 1 ч. 37 м.
Вид битрейта : Постоянный
Битрейт : 640 Кбит/сек
Каналы : 6 каналов
Расположение каналов : Front: L C R, Side: L R, LFE
Частота : 48,0 КГц
Частота кадров : 31,250 кадров/сек (1536 spf)
Битовая глубина : 16 бит
Метод сжатия : С потерями
Размер потока : 445 Мбайт (4%)
Заголовок : АС3 5.1 @ 640 kbps - Dub, BD EUR
Язык : Russian
Default : Нет
Forced : Нет

Аудио #2
Идентификатор : 3
Формат : AC-3
Формат/Информация : Audio Coding 3
Расширение режима : CM (complete main)
Параметр Endianness формата : Big
Идентификатор кодека : A_AC3
Продолжительность : 1 ч. 37 м.
Вид битрейта : Постоянный
Битрейт : 640 Кбит/сек
Каналы : 6 каналов
Расположение каналов : Front: L C R, Side: L R, LFE
Частота : 48,0 КГц
Частота кадров : 31,250 кадров/сек (1536 spf)
Битовая глубина : 16 бит
Метод сжатия : С потерями
Размер потока : 445 Мбайт (4%)
Заголовок : АС3 5.1 @ 640 kbps - Dub, BD EUR
Язык : Ukrainian
Default : Нет
Forced : Нет

Аудио #3
Идентификатор : 4
Формат : DTS
Формат/Информация : Digital Theater Systems
Режим : 16
Параметр Endianness формата : Big
Идентификатор кодека : A_DTS
Продолжительность : 1 ч. 37 м.
Вид битрейта : Постоянный
Битрейт : 1509 Кбит/сек
Каналы : 6 каналов
Расположение каналов : Front: L C R, Side: L R, LFE
Частота : 48,0 КГц
Частота кадров : 93,750 кадра/сек (512 spf)
Битовая глубина : 16 бит
Метод сжатия : С потерями
Размер потока : 1,02 Гбайт (10%)
Заголовок : DTS 5.1 @ 1509 kbps - Original
Язык : English
Default : Нет
Forced : Нет

Текст #1
Идентификатор : 5
Формат : UTF-8
Идентификатор кодека : S_TEXT/UTF8
Идентификатор кодека/Информация : UTF-8 Plain Text
Заголовок : Full
Язык : Russian
Default : Нет
Forced : Нет

Текст #2
Идентификатор : 6
Формат : UTF-8
Идентификатор кодека : S_TEXT/UTF8
Идентификатор кодека/Информация : UTF-8 Plain Text
Заголовок : Full
Язык : Ukrainian
Default : Нет
Forced : Нет

Текст #3
Идентификатор : 7
Формат : UTF-8
Идентификатор кодека : S_TEXT/UTF8
Идентификатор кодека/Информация : UTF-8 Plain Text
Заголовок : Full
Язык : English
Default : Нет
Forced : Нет

Меню
00:00:00.000 : en:
00:07:05.091 : en:
00:13:38.108 : en:
00:20:22.638 : en:
00:25:38.620 : en:
00:32:57.392 : en:
00:38:34.812 : en:
00:41:36.327 : en:
00:47:12.955 : en:
00:52:04.287 : en:
00:56:07.697 : en:
00:59:08.711 : en:
01:03:43.319 : en:
01:11:45.801 : en:
01:18:55.522 : en:
01:23:54.821 : en:

"x264 log"

x264 [info]: frame I:1536 Avg QP:14.02 size:305475
x264 [info]: frame P:42516 Avg QP:15.02 size:116573
x264 [info]: frame B:95820 Avg QP:16.76 size: 38531

x264 [info]: consecutive B-frames: 5.9% 9.4% 6.7% 67.8% 3.2% 4.1% 1.1% 1.8%

x264 [info]: ref P L0: 66.8% 11.8% 14.5% 6.7% 0.3% 0.0%
x264 [info]: ref B L0: 91.5% 7.0% 1.5%
x264 [info]: ref B L1: 96.9% 3.1%


http//img11.lostpic.net/2017/02/22/933311baf12477e1952a5877a44a0d.th.png http//img11.lostpic.net/2017/02/22/f795ed99db1092fb1b04f9a4e2238a.th.png http//img11.lostpic.net/2017/02/22/bd81779a67c05b3905d7696bc1eeb108.th.png http//img11.lostpic.net/2017/02/22/2a093255a7d9d0996401b3be44a58f6b.th.png http//img11.lostpic.net/2017/02/22/28369a70c0bcfb050cdfd52466522f33.th.png http//img11.lostpic.net/2017/02/22/d20ebd8910941bc53ba6e23d28f30626.th.png

Ссылка для скачивания:

http//bt.hqclub.net/files/ok.png Торрент: Angry Birds в кино / Angry Birds (2016) BDRip 1080p


Публикация материалов сайта на сторонних ресурсах возможна только в неизменном виде.


Обсудить релиз на форуме

Вас также может заинтересовать:


  • 5
 (Голосов: 3)


Распечатать новость на принтере Анимационный, Мультфильм, Комедия, Семейный
Обновлено: 23.02.2017 - 01:59