Вас Приветствует Релиз-группа HQCLUB


Помощь ресурсу, очень ВАЖНО!!!



.


WELCOME
Добро пожаловать в наше интернет - сообщество!

Всех нас объединяет одна страсть - страсть к высококачественному кино. А это наш сайт. Ежедневно здесь мы публикуем десятки качественных, свежих, а порой и эксклюзивных релизов, которые Вы можете скачать совершенно бесплатно и без каких-либо регистраций. Посему рекомендуем Вам добавить HQClub себе в закладки, а также подписаться на нашу ленту новостей, чтобы всегда быть в курсе всех событий. Ну а если Вы такой же синий фил, как и мы, то милости просим на наш форум. И в заключение, попробуйте зарегистрироваться, ведь не так это и сложно и займет всего лишь пару минут! Вот увидите, Вам у нас понравится и Вы вольетесь в наш дружный коллектив! Ну а пока - осматривайтесь = )
Мы рады Вам !





Тролли / Trolls (2016) BDRip 1080p

Оформил: jaka | 24 марта 2017 - 20:57:02 | Обращений: 786 {bookmarks_news}

http//img11.lostpic.net/2017/03/10/9b93b59a7442100ae10838e238691c.jpg

Информация о фильме:
Название: Тролли
Оригинальное название: Trolls
Год выхода: 2016
Жанр: мультфильм, мюзикл, фэнтези, комедия, приключения, семейный
Режиссеры: Уолт Дорн, Майк Митчелл
Роли озвучивали: Анна Кендрик, Джастин Тимберлэйк, Зои Дешанель, Кристофер Минц-Плассе, Кристин Барански, Расселл Брэнд, Гвен Стефани, Джон Клиз, Джеймс Корден, Джеффри Тэмбор, Кунал Нэйэр

О фильме: Отправляясь в увлекательное приключение, которое заведет ее далеко от привычного ей мира, Розочка объединяет усилия с самым мрачным троллем на свете по имени Цветан для достижения успеха в своей смелой миссии спасти ее друзей из тисков зловещих бергенов и их лидера, короля Хрящ Старший. Невероятные приключения Розочки проверят ее силу, покажут ее истинную суть и бросят вызов ее способности ударяться в пение в любой момент.

https//rating.kinopoisk.ru/689774.gif http//tracker.0day.kiev.ua/imdb/imdb_tt1679335.gif

Релиз от - http//hqclub.net/images/hqclub.png http//img11.lostpic.net/2016/12/26/f2565a587874b4bb3d1c7d8ac2f0da47.png
Автор рипа: jaka

Выпущено: США
Продолжительность: 01:32:26
Перевод: Профессиональный (полное дублирование) CEE
Субтитры: Русские, английские (обычные - 2 вида, SDH, SDH-Colored), украинские (спасибо Elheym)

Файл:
Формат: MKV
Качество: BDRip 1080p (источник: HDCLUB / Blu-Ray / 1080р)
Видео: 1920x816 (2.35:1), 23.976 fps, x264 core 148 r2744kMod b97ae06 ~10800 kbps avg, 0.288 bit/pixel
Аудио #1: 48 kHz, DTS, 3/2 (L,C,R,l,r) + LFE ch, ~1509 kbps avg (RUS)
Аудио #2: 48 kHz, AC3 Dolby Digital, 3/2 (L,C,R,l,r) + LFE ch, ~448 kbps avg (UKR)
Аудио #3: 48 kHz, DTS, 3/2 (L,C,R,l,r) + LFE ch, ~1509 kbps avg (ENG)
Размер: 8,93 Gb
Скачать: Сэмпл

"MediaInfo"

Уникальный идентификатор : 207067638995166770057722685873104616760 (0x9BC7C6D23C3B3FB38551884A7F1BFD38)
Полное имя : Trolls.2016.1080p.BluRay.Rus.Ukr.Eng.-HQCLUB.mkv
Формат : Matroska
Версия формата : Version 2
Размер файла : 8,93 Гбайт
Продолжительность : 1 ч. 32 м.
Общий поток : 13,8 Мбит/сек
Дата кодирования : UTC 2017-03-12 11:39:53
Программа кодирования : mkvmerge v5.2.0 ('I can't explain') built on Dec 18 2011 18:12:03
Библиотека кодирования : libebml v1.2.3 + libmatroska v1.3.0
Обложка : Yes
Attachments : cover.jpg

Видео
Идентификатор : 1
Формат : AVC
Формат/Информация : Advanced Video Codec
Профиль формата : High@L4.1
Параметр CABAC формата : Да
Параметр ReFrames формата : 5 кадров
Идентификатор кодека : V_MPEG4/ISO/AVC
Продолжительность : 1 ч. 32 м.
Битрейт : 10,8 Мбит/сек
Ширина : 1920 пикселей
Высота : 816 пикселей
Соотношение сторон : 2,35:1
Режим частоты кадров : Постоянный
Частота кадров : 23,976 (24000/1001) кадра/сек
Цветовое пространство : YUV
Субдискретизация насыщенности : 4:2:0
Битовая глубина : 8 бит
Тип развёртки : Прогрессивная
Бит/(Пиксели*Кадры) : 0.288
Размер потока : 6,99 Гбайт (78%)
Заголовок : Тролли / Trolls (2016) BDRip 1080p by jaka
Библиотека кодирования : x264 core 148 r2744kMod b97ae06
Настройки программы : cabac=1 / ref=5 / deblock=1:-3:-2 / analyse=0x3:0x133 / me=umh / subme=10 / psy=1 / fade_compensate=0.00 / psy_rd=0.50:0.00 / mixed_ref=1 / me_range=32 / chroma_me=1 / trellis=2 / 8x8dct=1 / cqm=0 / deadzone=21,11 / fast_pskip=0 / chroma_qp_offset=-2 / threads=12 / lookahead_threads=2 / sliced_threads=0 / nr=0 / decimate=1 / interlaced=0 / bluray_compat=0 / constrained_intra=0 / bframes=9 / b_pyramid=2 / b_adapt=2 / b_bias=0 / direct=3 / weightb=1 / open_gop=0 / weightp=2 / keyint=240 / keyint_min=23 / scenecut=40 / intra_refresh=0 / rc_lookahead=80 / rc=crf / mbtree=0 / crf=16.2000 / qcomp=0.70 / qpmin=0 / qpmax=69 / qpstep=4 / vbv_maxrate=62500 / vbv_bufsize=78125 / crf_max=0.0 / nal_hrd=none / filler=0 / ip_ratio=1.40 / pb_ratio=1.30 / aq=3:1.10
Язык : English
Default : Да
Forced : Нет
Цветовой диапазон : Limited
Основные цвета : BT.709
Характеристики трансфера : BT.709
Коэффициенты матрицы : BT.709

Аудио #1
Идентификатор : 2
Формат : DTS
Формат/Информация : Digital Theater Systems
Режим : 16
Параметр Endianness формата : Big
Идентификатор кодека : A_DTS
Продолжительность : 1 ч. 32 м.
Вид битрейта : Постоянный
Битрейт : 768 Кбит/сек
Каналы : 6 каналов
Расположение каналов : Front: L C R, Side: L R, LFE
Частота : 48,0 КГц
Частота кадров : 93,750 кадра/сек (512 spf)
Битовая глубина : 24 бит
Метод сжатия : С потерями
Размер потока : 508 Мбайт (6%)
Заголовок : DTS 5.1 @ 1509 kbps Dub, BD EUR
Язык : Russian
Default : Нет
Forced : Нет

Аудио #2
Идентификатор : 3
Формат : AC-3
Формат/Информация : Audio Coding 3
Параметр Endianness формата : Big
Идентификатор кодека : A_AC3
Продолжительность : 1 ч. 32 м.
Вид битрейта : Постоянный
Битрейт : 448 Кбит/сек
Каналы : 6 каналов
Расположение каналов : Front: L C R, Side: L R, LFE
Частота : 48,0 КГц
Частота кадров : 31,250 кадров/сек (1536 spf)
Битовая глубина : 16 бит
Метод сжатия : С потерями
Размер потока : 296 Мбайт (3%)
Заголовок : АС3 5.1 @ 448 kbps - Dub, BD EUR
Язык : Ukrainian
ServiceKind/String : Complete Main
Default : Нет
Forced : Нет

Аудио #3
Идентификатор : 4
Формат : DTS
Формат/Информация : Digital Theater Systems
Профиль формата : ES Matrix / Core
Режим : 16
Параметр Endianness формата : Big
Идентификатор кодека : A_DTS
Продолжительность : 1 ч. 32 м.
Вид битрейта : Постоянный
Битрейт : 1509 Кбит/сек
Каналы : 7 каналов / 6 каналов
Расположение каналов : Front: L C R, Side: L R, Back: C, LFE / Front: L C R, Side: L R, LFE
Частота : 48,0 КГц
Частота кадров : 93,750 кадра/сек (512 spf)
Битовая глубина : 24 бит
Метод сжатия : С потерями
Размер потока : 998 Мбайт (11%)
Заголовок : DTS 5.1 @ 1509 kbps - Original
Язык : English
Default : Нет
Forced : Нет

Текст #1
Идентификатор : 5
Формат : UTF-8
Идентификатор кодека : S_TEXT/UTF8
Идентификатор кодека/Информация : UTF-8 Plain Text
Заголовок : Full
Язык : Russian
Default : Нет
Forced : Нет

Текст #2
Идентификатор : 6
Формат : UTF-8
Идентификатор кодека : S_TEXT/UTF8
Идентификатор кодека/Информация : UTF-8 Plain Text
Заголовок : Full
Язык : Ukrainian
Default : Нет
Forced : Нет

Текст #3
Идентификатор : 7
Формат : UTF-8
Идентификатор кодека : S_TEXT/UTF8
Идентификатор кодека/Информация : UTF-8 Plain Text
Заголовок : Full Version 1
Язык : English
Default : Нет
Forced : Нет

Текст #4
Идентификатор : 8
Формат : UTF-8
Идентификатор кодека : S_TEXT/UTF8
Идентификатор кодека/Информация : UTF-8 Plain Text
Заголовок : Full Version 2
Язык : English
Default : Нет
Forced : Нет

Текст #5
Идентификатор : 9
Формат : UTF-8
Идентификатор кодека : S_TEXT/UTF8
Идентификатор кодека/Информация : UTF-8 Plain Text
Заголовок : SDH
Язык : English
Default : Нет
Forced : Нет

Текст #6
Идентификатор : 10
Формат : UTF-8
Идентификатор кодека : S_TEXT/UTF8
Идентификатор кодека/Информация : UTF-8 Plain Text
Заголовок : SDH Colored
Язык : English
Default : Нет
Forced : Нет

Меню
00:00:00.000 : en:
00:02:20.473 : en:
00:06:22.924 : en:
00:10:42.641 : en:
00:13:26.597 : en:
00:18:34.363 : en:
00:22:12.789 : en:
00:25:41.081 : en:
00:28:53.731 : en:
00:32:55.097 : en:
00:36:33.107 : en:
00:40:56.787 : en:
00:44:21.658 : en:
00:47:27.969 : en:
00:51:27.083 : en:
00:55:45.675 : en:
00:59:58.761 : en:
01:03:17.084 : en:
01:05:17.663 : en:
01:07:56.530 : en:
01:10:25.262 : en:
01:13:31.656 : en:
01:16:21.242 : en:
01:21:44.732 : en:
01:32:26.290 : en:

"x264 log"

x264 [info]: frame I:1249 Avg QP:11.23 size:261960
x264 [info]: frame P:34623 Avg QP:11.65 size:109315
x264 [info]: frame B:97122 Avg QP:13.61 size: 36897

x264 [info]: consecutive B-frames: 3.4% 5.4% 16.9% 29.8% 19.7% 16.3% 4.9% 1.3% 1.5% 0.7%

x264 [info]: ref P L0: 62.5% 9.8% 16.6% 5.5% 5.2% 0.2% 0.0%
x264 [info]: ref B L0: 84.7% 10.7% 3.6% 1.0%
x264 [info]: ref B L1: 96.7% 3.3%


http//img11.lostpic.net/2017/03/24/595c8abeccd89d10830ce46388ed0b35.th.png http//img11.lostpic.net/2017/03/24/9e4df6d9c67a33474636378b3b7eddde.th.png http//img11.lostpic.net/2017/03/24/cd79507174356164468a12cb0387.th.png http//img11.lostpic.net/2017/03/24/38371284723ccdbb8277922f000ef4.th.png http//img11.lostpic.net/2017/03/24/99efd5013c2f8ebcf73ff9746e2568a8.th.png http//img11.lostpic.net/2017/03/24/15b8c412b7ef58d1df1b592aa20b3688.th.png

Ссылка для скачивания:

http//bt.hqclub.net/files/ok.png Торрент: Тролли / Trolls (2016) BDRip 1080p


Публикация материалов сайта на сторонних ресурсах возможна только в неизменном виде.


Обсудить релиз на форуме

Вас также может заинтересовать:


  • 5
 (Голосов: 2)


Распечатать новость на принтере Анимационный, Детский, Комедия, Мультфильм, Мюзикл, Фэнтези
Обновлено: 24.03.2017 - 20:57