Вас Приветствует Релиз-группа HQCLUB


Помощь ресурсу, очень ВАЖНО!!!



.


WELCOME
Добро пожаловать в наше интернет - сообщество!

Всех нас объединяет одна страсть - страсть к высококачественному кино. А это наш сайт. Ежедневно здесь мы публикуем десятки качественных, свежих, а порой и эксклюзивных релизов, которые Вы можете скачать совершенно бесплатно и без каких-либо регистраций. Посему рекомендуем Вам добавить HQClub себе в закладки, а также подписаться на нашу ленту новостей, чтобы всегда быть в курсе всех событий. Ну а если Вы такой же синий фил, как и мы, то милости просим на наш форум. И в заключение, попробуйте зарегистрироваться, ведь не так это и сложно и займет всего лишь пару минут! Вот увидите, Вам у нас понравится и Вы вольетесь в наш дружный коллектив! Ну а пока - осматривайтесь = )
Мы рады Вам !





Рыбка Поньо на Утёсе / Понё на утёсе / Ponyo on the Cliff by the Sea / Gake no Ue no Ponyo (2008) BDRip-AVC

Оформил: Elheym | 26 декабря 2014 - 05:17:34 | Комментариев: 1 | Обращений: 1000 {bookmarks_news}

http//lostpic.net/orig_images/2/0/d/20dbfeb930afc766ec6fdfe46f4b7e79.jpg

Информация о фильме:
Название: Рыбка Поньо на Утёсе
Оригинальное название: Gake no Ue no Ponyo
Год выхода: 2008
Жанр: аниме, мультфильм, приключения, семейный
Режиссер: Хаяо Миядзаки / Hayao Miyazaki
В ролях: Томоко Ямагути, Казушиге Нагашима, Юки Амами, Джоджи Токоро, Юриа Нара, Хироки Дои, Руми Хираги, Акико Яно, Казуко Йошиюки, Томоко Нараока

О фильме: Маленькая любопытная рыбка Поньо — дочь колдуна и прекрасной морской богини уплывает из дома, чтобы понаблюдать за жизнью людей. Поньо застревает в банке и оказывается выброшенной на берег. Ее подбирает пятилетний Сооскэ. Малыши привязываются друг к другу. И теперь у Поньо только одно желание — стать человеком!

«Добро пожаловать в мир, где нет ничего невозможного»



http//rating.kinopoisk.ru/261127.gif http//tracker.0day.kiev.ua/imdb/imdb_tt0876563.gif

Релиз от - http//hqclub.net/images/hqclub.png
Автор рипа: Elheym

Выпущено: Япония; Asahi Soft Drinks Company, DENTSU Music And Entertainment Inc., Hakuhodo DY Media Partners, Lawson, Mitsubishi Corportaion, Nippon Television Network, Studio Ghibli, The Walt Disney Company, Toho Company, Yomiuri Shimbun, The
Продолжительность: 01:40:50
Перевод : Профессиональный (полное дублирование) RUSCICO
Оригинальная аудиодорожка: японская
Субтитры: русские (полные: Киномания, Urusai-team, RUSCICO), английские (полные)
Главы: присутствуют, сохранены оригинальные

Дополнительные аудиодорожки:
+ Профессиональный (многоголосый, закадровый) Киномания
+ Авторский (одноголосый, закадровый) Ю. Немахов

Файл:
Формат: MKV
Качество: BDRip-AVC (источник: abel91 / Blu-ray Remux / 1080p)
Видео: 1138x614 (1.85:1), 23.976 fps, MPEG-4 AVC, ~2149 kbps avg, 0.128 bit/pixel
Аудио #1: 48 kHz, AC3 Dolby Digital, 3/2 (L,C,R,l,r) + LFE ch, ~448 kbps avg (DUB.RUSCICO)
Аудио #2: 48 kHz, AC3 Dolby Digital, 3/2 (L,C,R,l,r) + LFE ch, ~448 kbps avg (JPN)
Аудио #3: 48 kHz, AC3 Dolby Digital, 3/2 (L,C,R,l,r) + LFE ch, ~448 kbps avg (MVO.KINOMANIJA) (отдельно)
Аудио #4: 48 kHz, AC3 Dolby Digital, 3/2 (L,C,R,l,r) + LFE ch, ~448 kbps avg (AVO.NEMAHOV) (отдельно)
Размер: 2.18 GB
Сэмпл: скачать

http//lostpic.net/thumbs_images/2/3/d/23d9abdcd920d0baa254a8ec1152a4fd.png http//lostpic.net/thumbs_images/8/d/6/8d6294f7e17b225c5a1f3fc5117b678e.png http//lostpic.net/thumbs_images/5/f/1/5f1f30612ec41206d16012524dea4799.png http//lostpic.net/thumbs_images/6/a/8/6a8abfcdd91eb2584b96df91c7b0f5a5.png http//lostpic.net/thumbs_images/f/2/0/f20b1c8f5ad1d391e38b21df89f7e9de.png http//lostpic.net/thumbs_images/c/e/9/ce9ea2e0dc1afbcde591660e006ea4d6.png

"MediaInfo"

Уникальный идентификатор : 211650033460069067162457571875992430142 (0x9F3A504FC410BC0383114DEF1DE4E63E)
Полное имя : Ponyo.on.the.Cliff.by.the.Sea.2008.DUAL.BDRip-AVC.x264.AC3.-HQCLUB.mkv
Формат : Matroska
Версия формата : Version 2
Размер файла : 2,19 Гбайт
Продолжительность : 1 ч. 40 м.
Общий поток : 3108 Кбит/сек
Дата кодирования : UTC 2014-12-26 01:33:35
Программа кодирования : mkvmerge v5.2.0 ('I can't explain') built on Dec 18 2011 18:12:03
Библиотека кодирования : libebml v1.2.3 + libmatroska v1.3.0

Видео
Идентификатор : 1
Формат : AVC
Формат/Информация : Advanced Video Codec
Профиль формата : High@L4.1
Параметр CABAC формата : Да
Параметр ReFrames формата : 11 кадров
Идентификатор кодека : V_MPEG4/ISO/AVC
Продолжительность : 1 ч. 40 м.
Битрейт : 2150 Кбит/сек
Ширина : 1138 пикселей
Высота : 614 пикселей
Соотношение сторон : 1,85:1
Режим частоты кадров : Постоянный
Частота кадров : 23,976 кадра/сек
Цветовое пространство : YUV
Субдискретизация насыщенности : 4:2:0
Битовая глубина : 8 бит
Тип развёртки : Прогрессивная
Бит/(Пиксели*Кадры) : 0.128
Размер потока : 1,51 Гбайт (69%)
Заголовок : Рыбка Поньо на Утёсе / Понё на утёсе / Ponyo on the Cliff by the Sea / Gake no Ue no Ponyo (2008) BDRip-AVC by HQCLUB [Elheym]
Библиотека кодирования : x264 core 144 r2525kMod 40bb568
Настройки программы : cabac=1 / ref=11 / deblock=1:0:0 / analyse=0x3:0x133 / me=umh / subme=11 / psy=1 / fade_compensate=0.00 / psy_rd=0.70:0.00 / mixed_ref=1 / me_range=32 / chroma_me=1 / trellis=2 / 8x8dct=1 / cqm=0 / deadzone=21,11 / fast_pskip=1 / chroma_qp_offset=-4 / threads=6 / lookahead_threads=1 / sliced_threads=0 / nr=0 / decimate=1 / interlaced=0 / bluray_compat=0 / constrained_intra=0 / fgo=0 / bframes=12 / b_pyramid=2 / b_adapt=2 / b_bias=0 / direct=3 / weightb=1 / open_gop=0 / weightp=2 / keyint=230 / keyint_min=23 / scenecut=40 / intra_refresh=0 / rc_lookahead=40 / rc=crf / mbtree=1 / crf=19.5000 / qcomp=0.70 / qpmin=0 / qpmax=69 / qpstep=4 / vbv_maxrate=50000 / vbv_bufsize=62500 / crf_max=0.0 / nal_hrd=none / filler=0 / ip_ratio=1.40 / aq=2:0.90
Язык : Japanese
Default : Да
Forced : Нет

Аудио #1
Идентификатор : 2
Формат : AC-3
Формат/Информация : Audio Coding 3
Расширение режима : CM (complete main)
Параметр Endianness формата : Big
Идентификатор кодека : A_AC3
Продолжительность : 1 ч. 40 м.
Вид битрейта : Постоянный
Битрейт : 448 Кбит/сек
Каналы : 6 каналов
Расположение каналов : Front: L C R, Side: L R, LFE
Частота : 48,0 КГц
Битовая глубина : 16 бит
Метод сжатия : С потерями
Размер потока : 323 Мбайт (14%)
Заголовок : АС3 5.1 @ 448 kbps - Dub, Ruscico
Язык : Russian
Default : Нет
Forced : Нет

Аудио #2
Идентификатор : 3
Формат : AC-3
Формат/Информация : Audio Coding 3
Расширение режима : CM (complete main)
Параметр Endianness формата : Big
Идентификатор кодека : A_AC3
Продолжительность : 1 ч. 40 м.
Вид битрейта : Постоянный
Битрейт : 448 Кбит/сек
Каналы : 6 каналов
Расположение каналов : Front: L C R, Side: L R, LFE
Частота : 48,0 КГц
Битовая глубина : 16 бит
Метод сжатия : С потерями
Размер потока : 323 Мбайт (14%)
Заголовок : АС3 5.1 @ 448 kbps - Original
Язык : Japanese
Default : Нет
Forced : Нет

Текст #1
Идентификатор : 4
Формат : UTF-8
Идентификатор кодека : S_TEXT/UTF8
Идентификатор кодека/Информация : UTF-8 Plain Text
Заголовок : Full, Kinomanija
Язык : Russian
Default : Нет
Forced : Нет

Текст #2
Идентификатор : 5
Формат : UTF-8
Идентификатор кодека : S_TEXT/UTF8
Идентификатор кодека/Информация : UTF-8 Plain Text
Заголовок : Full, Urusai-team
Язык : Russian
Default : Нет
Forced : Нет

Текст #3
Идентификатор : 6
Формат : UTF-8
Идентификатор кодека : S_TEXT/UTF8
Идентификатор кодека/Информация : UTF-8 Plain Text
Заголовок : Full, Ruscico [Sonotek]
Язык : Russian
Default : Нет
Forced : Нет

Текст #4
Идентификатор : 7
Формат : UTF-8
Идентификатор кодека : S_TEXT/UTF8
Идентификатор кодека/Информация : UTF-8 Plain Text
Заголовок : Full
Язык : English
Default : Нет
Forced : Нет

Меню
00:00:00.000 : :Chapter 01
00:04:34.983 : :Chapter 02
00:09:58.306 : :Chapter 03
00:16:14.098 : :Chapter 04
00:21:02.094 : :Chapter 05
00:27:07.584 : :Chapter 06
00:35:21.369 : :Chapter 07
00:41:21.771 : :Chapter 08
00:48:34.203 : :Chapter 09
00:55:21.652 : :Chapter 10
01:02:00.675 : :Chapter 11
01:08:53.171 : :Chapter 12
01:12:58.833 : :Chapter 13
01:19:22.925 : :Chapter 14
01:24:30.857 : :Chapter 15
01:29:08.885 : :Chapter 16
01:34:54.772 : :Chapter 17
01:39:09.902 : :Chapter 18

"x264 log"

x264 [info]: frame I:1113 Avg QP:16.34 size:145617
x264 [info]: frame P:34872 Avg QP:20.98 size: 24183
x264 [info]: frame B:109069 Avg QP:24.19 size: 6097

x264 [info]: consecutive B-frames: 2.3% 3.7% 8.7% 39.9% 18.7% 15.5% 5.8% 3.4% 0.7% 0.5% 0.2% 0.5% 0.2%

x264 [info]: ref P L0: 38.7% 5.8% 14.2% 8.9% 6.5% 6.8% 5.2% 3.7% 3.0% 3.5% 3.1% 0.6% 0.0%
x264 [info]: ref B L0: 60.6% 10.8% 8.4% 4.5% 4.2% 3.6% 3.4% 2.1% 1.5% 0.9%
x264 [info]: ref B L1: 91.7% 8.3%


Ссылки для скачивания:

http//bt.hqclub.net/files/ok.png Торрент: Рыбка Поньо на Утёсе / Понё на утёсе / Ponyo on the Cliff by the Sea / Gake no Ue no Ponyo (2008) BDRip-AVC

Лучшая онлайн игра!


Публикация материалов сайта на сторонних ресурсах возможна только в неизменном виде.


Обсудить релиз на форуме

Вас также может заинтересовать:


  • 5
 (Голосов: 2)


Распечатать новость на принтере Аниме, Мультфильм, Приключения, Семейный

КОММЕНТАРИИ

 №1. ru4lan

Статус: Кинокритик | Новостей: 0 | Комментариев: 2736
ru4lan спасибо, однозначно в мою коллекшн!
~~~

26.12.2014 - 15:36   цитировать