Вас Приветствует Релиз-группа HQCLUB


Помощь ресурсу, очень ВАЖНО!!!



.


WELCOME
Добро пожаловать в наше интернет - сообщество!

Всех нас объединяет одна страсть - страсть к высококачественному кино. А это наш сайт. Ежедневно здесь мы публикуем десятки качественных, свежих, а порой и эксклюзивных релизов, которые Вы можете скачать совершенно бесплатно и без каких-либо регистраций. Посему рекомендуем Вам добавить HQClub себе в закладки, а также подписаться на нашу ленту новостей, чтобы всегда быть в курсе всех событий. Ну а если Вы такой же синий фил, как и мы, то милости просим на наш форум. И в заключение, попробуйте зарегистрироваться, ведь не так это и сложно и займет всего лишь пару минут! Вот увидите, Вам у нас понравится и Вы вольетесь в наш дружный коллектив! Ну а пока - осматривайтесь = )
Мы рады Вам !





Патэма наоборот / Patema Inverted / Sakasama no Patema (2013) BDRip-AVC

Оформил: MOSFET | 7 января 2016 - 13:25:51 | Комментариев: 1 | Обращений: 689 {bookmarks_news}

http//img10.lostpic.net/2016/01/06/aff3895f6cce6a74642bd4a32f3ca8e8.png

Информация о фильме:
Название: Патэма наоборот
Оригинальное название: Sakasama no Patema
Год выхода: 2013
Жанр: аниме, мультфильм, приключения
Режиссер: Ясухиро Ёсиура
В ролях: Юкиё Фудзий, Нобухико Окамото, Синтару Оохата, Синъя Фукумацу, Масаюки Като, Хироки Ясумото, Маая Учида, Такая Хаси, Хидеюки Умезу, Гоу Синомия

О фильме:
В результате некой произошедшей в прошлом катастрофы человечество разделилось на два народа. Для первого народа гравитация действует наоборот, и его представители, а также используемые ими вещи, падают в небеса. Однако, эти люди живут под землей, поэтому большой угрозы для них эта особенность не представляет. Для второго народа гравитация действует обычным образом, и он живет на поверхности земли. Жизни этих двух народов практически не пересекаются, и о существовании друг друга большая часть их представителей не знает. Однако, у живущих на поверхности людей есть история о том, что в прошлом грешники улетели на небеса. Поэтому в обществе считается недопустимым смотреть на небо — следует направлять свой взгляд на землю.

«Нас спасает притяжение»

КиноПоиск: 7.463 / 10 (2 659 votes)
Imdb: 7.4 / 10 (2 476 votes)

Релиз от - http//hqclub.net/images/hqclub.png
Автор рипа: MOSFET

Выпущено: Япония
Продолжительность: 01:38:49
Перевод: Профессиональный (полное дублирование) Reanimedia + Оригинальная японская звуковая дорожка

Дополнительные аудиодорожки:
+ Английский (дублированный)
+ Фандаб:






Субтитры: Русские (форсированные, полные) Reanimedia, английские (форсированные), английские (полные) JPN BD, английские (полные) GBR BD (*.srt, отключаемые)

Цитата:
Сохранены оригинальные главы как на Blu-ray.


Файл:
Формат: AVI
Качество: BDRip-AVC (источник: HDBits / Blu-Ray Disc / 1080p)
Видео: 1152x648 (16:9), 23.976 fps, x264@L4, crf, ~2244 kbps avg, 0.125 bit/pixel
Аудио #1: 48 kHz, AC3, 3/2 (L,C,R,l,r) + LFE ch, ~448.00 kbps avg (RUS) Reanimedia
Аудио #2: 48 kHz, AC3, 3/2 (L,C,R,l,r) + LFE ch, ~448.00 kbps avg (JAP)
Аудио #3: 48 kHz, AC3, 3/2 (L,C,R,l,r) + LFE ch, ~448.00 kbps avg (ENG) (отдельно)
Размер: 2,21 Gb
Скачать: Сэмпл

http//img10.lostpic.net/2016/01/07/30819cf6c9bc8ef8a2e9f6405a5e6d60.th.png http//img10.lostpic.net/2016/01/07/9d834cebb5f84d4fbf71a26710df2672.th.png http//img10.lostpic.net/2016/01/07/da9e8feb1bd616869a054ce66dcad653.th.png http//img10.lostpic.net/2016/01/07/a9331d2b75fe6b181b3300c6716c8e.th.png http//img10.lostpic.net/2016/01/07/547b952a78f684e4a204127bb592ad.th.png http//img10.lostpic.net/2016/01/07/38e29c5ca6736fd977e91309e1a7.th.png

MediaINFO
Полное имя : Patema.naoborot.2013.DUAL.BDRip-AVC.x264.AC3.-HQCLUB.mkv
Формат : Matroska
Версия формата : Version 4 / Version 2
Размер файла : 2,21 Гбайт
Продолжительность : 1 ч. 38 м.
Общий поток : 3204 Кбит/сек
Дата кодирования : UTC 2016-01-04 12:59:47
Программа кодирования : mkvmerge v7.8.0 ('River Man') 32bit built on Mar 27 2015 16:18:02
Библиотека кодирования : libebml v1.3.1 + libmatroska v1.4.2

Видео
Идентификатор : 1
Формат : AVC
Формат/Информация : Advanced Video Codec
Профиль формата : High@L4
Параметр CABAC формата : Да
Параметр ReFrames формата : 10 кадров
Идентификатор кодека : V_MPEG4/ISO/AVC
Продолжительность : 1 ч. 38 м.
Битрейт : 2244 Кбит/сек
Ширина : 1152 пикселя
Высота : 648 пикселей
Соотношение сторон : 16:9
Режим частоты кадров : Постоянный
Частота кадров : 23,976 кадра/сек
Цветовое пространство : YUV
Субдискретизация насыщенности : 4:2:0
Битовая глубина : 8 бит
Тип развёртки : Прогрессивная
Бит/(Пиксели*Кадры) : 0.125
Размер потока : 1,55 Гбайт (70%)
Заголовок : Патэма наоборот / Patema Inverted / Sakasama no Patema (2013) BDRip-AVC by HQCLUB | Encode by MOSFET
Библиотека кодирования : x264 core 148 r2638 7599210
Настройки программы : cabac=1 / ref=10 / deblock=1:-1:-1 / analyse=0x3:0x113 / me=umh / subme=11 / psy=1 / psy_rd=0.50:0.00 / mixed_ref=1 / me_range=48 / chroma_me=1 / trellis=2 / 8x8dct=1 / cqm=0 / deadzone=21,11 / fast_pskip=0 / chroma_qp_offset=-2 / threads=12 / lookahead_threads=3 / sliced_threads=0 / nr=0 / decimate=1 / interlaced=0 / bluray_compat=0 / constrained_intra=0 / bframes=16 / b_pyramid=2 / b_adapt=2 / b_bias=0 / direct=3 / weightb=1 / open_gop=0 / weightp=2 / keyint=240 / keyint_min=23 / scenecut=40 / intra_refresh=0 / rc_lookahead=80 / rc=crf / mbtree=1 / crf=14.5 / qcomp=0.70 / qpmin=0 / qpmax=69 / qpstep=4 / vbv_maxrate=20000 / vbv_bufsize=25000 / crf_max=0.0 / nal_hrd=none / filler=0 / ip_ratio=1.40 / aq=3:0.60 / zones=15180,15708,b=1.5/48765,49482,b=1.5/74670,74727,b=1.5/76804,77032,b=1.5/87079,87112,b=1.5/87871,87955,b=1.5/88308,88796,b=1.5/89108,89591,b=1.5/89998,90452,b=1.5/90539,90629,b=1.5/90873,90902,b=1.5/96894,97013,b=1.5
Язык : Japanese
Default : Да
Forced : Нет

Аудио #1
Идентификатор : 2
Формат : AC-3
Формат/Информация : Audio Coding 3
Расширение режима : CM (complete main)
Параметр Endianness формата : Big
Идентификатор кодека : A_AC3
Продолжительность : 1 ч. 38 м.
Вид битрейта : Постоянный
Битрейт : 448 Кбит/сек
Каналы : 6 каналов
Расположение каналов : Front: L C R, Side: L R, LFE
Частота : 48,0 КГц
Метод сжатия : С потерями
Размер потока : 317 Мбайт (14%)
Заголовок : Профессиональный (полное дублирование) Reanimedia
Язык : Russian
Default : Да
Forced : Нет

Аудио #2
Идентификатор : 3
Формат : AC-3
Формат/Информация : Audio Coding 3
Расширение режима : CM (complete main)
Параметр Endianness формата : Big
Идентификатор кодека : A_AC3
Продолжительность : 1 ч. 38 м.
Вид битрейта : Постоянный
Битрейт : 448 Кбит/сек
Каналы : 6 каналов
Расположение каналов : Front: L C R, Side: L R, LFE
Частота : 48,0 КГц
Метод сжатия : С потерями
Размер потока : 317 Мбайт (14%)
Заголовок : Оригинальная японская звуковая дорожка
Язык : Japanese
Default : Нет
Forced : Нет

Текст #1
Идентификатор : 4
Формат : UTF-8
Идентификатор кодека : S_TEXT/UTF8
Идентификатор кодека/Информация : UTF-8 Plain Text
Заголовок : Русские (форсированные) Reanimedia
Язык : Russian
Default : Да
Forced : Нет

Текст #2
Идентификатор : 5
Формат : UTF-8
Идентификатор кодека : S_TEXT/UTF8
Идентификатор кодека/Информация : UTF-8 Plain Text
Заголовок : Русские (полные) Reanimedia
Язык : Russian
Default : Нет
Forced : Нет

Текст #3
Идентификатор : 6
Формат : UTF-8
Идентификатор кодека : S_TEXT/UTF8
Идентификатор кодека/Информация : UTF-8 Plain Text
Заголовок : Английские (форсированные)
Язык : English
Default : Нет
Forced : Нет

Текст #4
Идентификатор : 7
Формат : UTF-8
Идентификатор кодека : S_TEXT/UTF8
Идентификатор кодека/Информация : UTF-8 Plain Text
Заголовок : Английские (полные) JPN BD
Язык : English
Default : Нет
Forced : Нет

Текст #5
Идентификатор : 8
Формат : UTF-8
Идентификатор кодека : S_TEXT/UTF8
Идентификатор кодека/Информация : UTF-8 Plain Text
Заголовок : Английские (полные) GBR BD
Язык : English
Default : Нет
Forced : Нет

Меню
00:00:00.000 : en:Chapter 1
00:07:46.883 : en:Chapter 2
00:13:11.541 : en:Chapter 3
00:21:30.789 : en:Chapter 4
00:25:52.551 : en:Chapter 5
00:32:02.129 : en:Chapter 6
00:37:09.436 : en:Chapter 7
00:44:14.527 : en:Chapter 8
00:52:14.757 : en:Chapter 9
00:56:54.953 : en:Chapter 10
01:03:51.953 : en:Chapter 11
01:11:01.174 : en:Chapter 12
01:19:04.073 : en:Chapter 13
01:25:03.265 : en:Chapter 14
01:32:39.554 : en:Chapter 15

x264 log
x264 [info]: frame I:975 Avg QP: 9.78 size:156966
x264 [info]: frame P:25125 Avg QP:13.75 size: 35006
x264 [info]: frame B:116076 Avg QP:16.85 size: 5829

x264 [info]: consecutive B-frames: 1.9% 2.4% 3.2% 13.4% 9.8% 20.4% 6.9% 22.5% 3.0% 2.1% 1.4% 9.6% 1.0% 0.9% 0.4% 0.9% 0.3%

x264 [info]: ref P L0: 45.9% 6.7% 19.8% 7.3% 6.1% 4.4% 3.8% 2.1% 2.0% 1.7% 0.2% 0.0%
x264 [info]: ref B L0: 67.1% 14.9% 7.1% 3.6% 2.6% 2.1% 1.6% 0.7% 0.3%
x264 [info]: ref B L1: 90.8% 9.2%


Ссылки для скачивания:

http//bt.hqclub.net/files/ok.png Торрент: Патэма наоборот / Sakasama no Patema (2013) BDRip-AVC

Лучшая онлайн игра!


Публикация материалов сайта на сторонних ресурсах возможна только в неизменном виде.


Обсудить релиз на форуме

Вас также может заинтересовать:


  • 4
 (Голосов: 3)


Распечатать новость на принтере Аниме, Мультфильм, Приключения

КОММЕНТАРИИ