Вас Приветствует Релиз-группа HQCLUB


Помощь ресурсу, очень ВАЖНО!!!



.


WELCOME
Добро пожаловать в наше интернет - сообщество!

Всех нас объединяет одна страсть - страсть к высококачественному кино. А это наш сайт. Ежедневно здесь мы публикуем десятки качественных, свежих, а порой и эксклюзивных релизов, которые Вы можете скачать совершенно бесплатно и без каких-либо регистраций. Посему рекомендуем Вам добавить HQClub себе в закладки, а также подписаться на нашу ленту новостей, чтобы всегда быть в курсе всех событий. Ну а если Вы такой же синий фил, как и мы, то милости просим на наш форум. И в заключение, попробуйте зарегистрироваться, ведь не так это и сложно и займет всего лишь пару минут! Вот увидите, Вам у нас понравится и Вы вольетесь в наш дружный коллектив! Ну а пока - осматривайтесь = )
Мы рады Вам !





Унесённые призраками / Spirited Away / Sen to Chihiro no kamikakushi (2001) BDRip-AVC

Оформил: Elheym | 23 июля 2014 - 13:28:08 | Комментариев: 1 | Обращений: 837 {bookmarks_news}

http//lostpic.net/orig_images/3/a/8/3a8e0108e8bc8df4ae7eaed1f3689a5c.png

Информация о фильме
Название: Унесённые призраками
Оригинальное название: Sen to Chihiro no kamikakushi
Год выхода: 2001
Жанр: аниме, мультфильм, фэнтези, приключения, семейный
Режиссер: Хаяо Миядзаки

В ролях: Руми Хираги, Такаши Найто, Ясуко Савагучи, Ирино Мию, Бунта Сугавара, Мари Нацуки, Юми Тамаи, Тацуя Гасюин, Акио Накамура, Рюноскэ Камики

О фильме: Маленькая Тихиро вместе с мамой и папой переезжают в новый дом. Заблудившись по дороге, они оказываются в странном пустынном городе, где их ждет великолепный пир. Родители с жадностью набрасываются на еду и к ужасу девочки превращаются в свиней, став пленниками злой колдуньи Юбабы, властительницы таинственного мира древних богов и могущественных духов.

Теперь, оказавшись одна среди магических существ и загадочных видений, отважная Тихиро должна придумать, как избавить своих родителей от чар коварной старухи и спастись из пугающего царства призраков…

«The tunnel led Chihiro to a mysterious town...»



http//rating.kinopoisk.ru/370.gif http//tracker.0day.kiev.ua/imdb/imdb_tt0245429.gif

Релиз от - http//hqclub.net/images/hqclub.png
Автор рипа: Elheym

Выпущено: Япония, Studio Ghibli
Продолжительность: 02:04:32
Перевод: Профессиональный (полное дублирование), Невафильм + Оригинал (японский)
Субтитры: русские (полные), украинские (полные), английские (полные)

Дополнительные аудиодорожки:
+ Профессиональный (многоголосый, закадровый), DVD Эксперт
+ Профессиональный (многоголосый, закадровый), 2x2 (Алексей Борзунов, Елена Борзунова, Александр Комлев)
+ Профессиональный (двухголосый, закадровый), Tycoon
+ Профессиональный (двухголосый, закадровый), Петр Гланц, Инна Королёва
+ Авторский (Андрей Гаврилов)
+ Авторский (Евгений Рудой)
+ Авторский (Сергей Рябов)
+ Авторский (Юрий Сербин)
+ Авторский (Артем Толстобров)
+ Профессиональный (многоголосый, закадровый) (украинский), TET
+ Профессиональный (многоголосый, закадровый) (украинский), AnimEx & AniFilm & UkrDub
+ Английский дубляж

За аудиодорожки большое спасибо http//i28.fastpic.ru/big/2011/1013/a8/a3d28e80c9544f4c572189fc892ea8.gif!

Файл:
Формат: MKV
Качество: BDRip-AVC (источник: http//i28.fastpic.ru/big/2011/1013/a8/a3d28e80c9544f4c572189fc892ea8.gif / BDRemux / 1080p)
Видео: 1024x552 (1,855:1), 23.976 fps, MPEG-4 AVC, ~2450 kbps avg, 0.181 bit/pixel, 8 bit
Аудио #1: (DUB) 48 kHz, AC3 Dolby Digital, 3/2 (L,C,R,l,r) + LFE ch, 448.00 kbps avg
Аудио #2: (JAP) 48 kHz, AC3 Dolby Digital, 3/2 (L,C,R,l,r) + LFE ch, 448.00 kbps avg
Аудио #3: (MVO.DVD.EXPERT) 48 kHz, AC3 Dolby Digital, 3/2 (L,C,R,l,r) + LFE ch, 384.00 kbps avg (отдельно)
Аудио #4: (MVO.2X2) 48 kHz, AC3 Dolby Digital, 2/0 (L,R) ch, 192 kbps avg (отдельно)
Аудио #5: (DVO.TYCOON) 48 kHz, AC3 Dolby Digital, 3/2 (L,C,R,l,r) + LFE ch, 384.00 kbps avg (отдельно)
Аудио #6: (DVO.GLANZ) 48 kHz, AC3 Dolby Digital, 3/2 (L,C,R,l,r) + LFE ch, 384.00 kbps avg (отдельно)
Аудио #7: (AVO.GAVRILOV) 48 kHz, AC3 Dolby Digital, 3/2 (L,C,R,l,r) + LFE ch, 384.00 kbps avg (отдельно)
Аудио #8: (AVO.RUDOY) 48 kHz, AC3 Dolby Digital, 3/2 (L,C,R,l,r) + LFE ch, 384.00 kbps avg (отдельно)
Аудио #9: (AVO.RYABOV) 48 kHz, AC3 Dolby Digital, 3/2 (L,C,R,l,r) + LFE ch, 384.00 kbps avg (отдельно)
Аудио #10: (AVO.SERBIN) 48 kHz, AC3 Dolby Digital, 3/2 (L,C,R,l,r) + LFE ch, 384.00 kbps avg (отдельно)
Аудио #11: (AVO.TOLSTOBROV) 48 kHz, AC3 Dolby Digital, 3/2 (L,C,R,l,r) + LFE ch, 384.00 kbps avg (отдельно)
Аудио #12: (UKR.MVO.TET) 48 kHz, AC3 Dolby Digital, 2/0 (L,R) ch, 192 kbps avg (отдельно)
Аудио #13: (UKR.MVO.ANIMEX) 48 kHz, AC3 Dolby Digital, 2/0 (L,R) ch, 192 kbps avg (отдельно)
Аудио #14: (ENG.DUB) 48 kHz, AC3 Dolby Digital, 3/2 (L,C,R,l,r) + LFE ch, 384.00 kbps avg (отдельно)
Размер: 2.91 GB
Сэмпл: скачать

http//lostpic.net/thumbs_images/0/8/5/0851ed3f8b5d131212760a7b0c406b86.png http//lostpic.net/thumbs_images/4/d/7/4d72aa236718b3ad5236cb2d86ee2656.png http//lostpic.net/thumbs_images/3/d/9/3d9e8c2e436061dc4131c5e4cd3f3967.png http//lostpic.net/thumbs_images/6/f/6/6f6ec8d1c3135efaf3bc8a154bea34.png http//lostpic.net/thumbs_images/a/9/2/a9261f7e381971474f4ca612b6da00ea.png http//lostpic.net/thumbs_images/a/1/1/a11b19a52bf9c31035ddcf075d25e108.png

"MediaInfo"

Уникальный идентификатор : 220069118173883435265712459729101067187 (0xA58FC53C61A588FE9265F7C1793B13B3)
Полное имя : Spirited.Away.2001.DUAL.BDRip-AVC.x264.AC3.-HQCLUB.mkv
Формат : Matroska
Версия формата : Version 2
Размер файла : 2,91 Гбайт
Продолжительность : 2 ч. 4 м.
Общий поток : 3347 Кбит/сек
Дата кодирования : UTC 2014-07-23 08:08:51
Программа кодирования : mkvmerge v5.2.0 ('I can't explain') built on Dec 18 2011 18:12:03
Библиотека кодирования : libebml v1.2.3 + libmatroska v1.3.0

Видео
Идентификатор : 1
Формат : AVC
Формат/Информация : Advanced Video Codec
Профиль формата : High@L4.1
Параметр CABAC формата : Да
Параметр ReFrames формата : 14 кадров
Идентификатор кодека : V_MPEG4/ISO/AVC
Продолжительность : 2 ч. 4 м.
Битрейт : 2450 Кбит/сек
Ширина : 1024 пикселя
Высота : 552 пикселя
Соотношение сторон : 1,85:1
Режим частоты кадров : Постоянный
Частота кадров : 23,976 кадра/сек
Цветовое пространство : YUV
Субдискретизация насыщенности : 4:2:0
Битовая глубина : 8 бит
Тип развёртки : Прогрессивная
Бит/(Пиксели*Кадры) : 0.181
Размер потока : 2,07 Гбайт (71%)
Заголовок : Унесённые призраками / Spirited Away / Sen to Chihiro no kamikakushi (2001) BDRip-AVC by HQCLUB [Elheym]
Библиотека кодирования : x264 core 142 r2431 ac76440
Настройки программы : cabac=1 / ref=14 / deblock=1:-1:-1 / analyse=0x3:0x113 / me=umh / subme=11 / psy=1 / psy_rd=1.00:0.00 / mixed_ref=1 / me_range=32 / chroma_me=1 / trellis=2 / 8x8dct=1 / cqm=0 / deadzone=21,11 / fast_pskip=1 / chroma_qp_offset=-4 / threads=6 / lookahead_threads=1 / sliced_threads=0 / nr=0 / decimate=1 / interlaced=0 / bluray_compat=0 / constrained_intra=0 / bframes=11 / b_pyramid=2 / b_adapt=2 / b_bias=0 / direct=3 / weightb=1 / open_gop=0 / weightp=2 / keyint=240 / keyint_min=23 / scenecut=40 / intra_refresh=0 / rc_lookahead=40 / rc=2pass / mbtree=1 / bitrate=2450 / ratetol=1.0 / qcomp=0.60 / qpmin=10 / qpmax=69 / qpstep=4 / cplxblur=20.0 / qblur=0.5 / vbv_maxrate=50000 / vbv_bufsize=62500 / nal_hrd=none / filler=0 / ip_ratio=1.40 / aq=1:0.80
Язык : Japanese
Default : Да
Forced : Нет

Аудио #1
Идентификатор : 2
Формат : AC-3
Формат/Информация : Audio Coding 3
Расширение режима : CM (complete main)
Параметр Endianness формата : Big
Идентификатор кодека : A_AC3
Продолжительность : 2 ч. 4 м.
Вид битрейта : Постоянный
Битрейт : 448 Кбит/сек
Каналы : 6 каналов
Расположение каналов : Front: L C R, Side: L R, LFE
Частота : 48,0 КГц
Битовая глубина : 16 бит
Метод сжатия : С потерями
Размер потока : 399 Мбайт (13%)
Заголовок : АС3 5.1 @ 448 kbps - Dub
Язык : Russian
Default : Нет
Forced : Нет

Аудио #2
Идентификатор : 3
Формат : AC-3
Формат/Информация : Audio Coding 3
Расширение режима : CM (complete main)
Параметр Endianness формата : Big
Идентификатор кодека : A_AC3
Продолжительность : 2 ч. 4 м.
Вид битрейта : Постоянный
Битрейт : 448 Кбит/сек
Каналы : 6 каналов
Расположение каналов : Front: L C R, Side: L R, LFE
Частота : 48,0 КГц
Битовая глубина : 16 бит
Метод сжатия : С потерями
Размер потока : 399 Мбайт (13%)
Заголовок : АС3 5.1 @ 448 kbps - Original
Язык : Japanese
Default : Нет
Forced : Нет

Текст #1
Идентификатор : 4
Формат : UTF-8
Идентификатор кодека : S_TEXT/UTF8
Идентификатор кодека/Информация : UTF-8 Plain Text
Заголовок : Full, R5
Язык : Russian
Default : Нет
Forced : Нет

Текст #2
Идентификатор : 5
Формат : UTF-8
Идентификатор кодека : S_TEXT/UTF8
Идентификатор кодека/Информация : UTF-8 Plain Text
Заголовок : Full
Язык : Ukrainian
Default : Нет
Forced : Нет

Текст #3
Идентификатор : 6
Формат : UTF-8
Идентификатор кодека : S_TEXT/UTF8
Идентификатор кодека/Информация : UTF-8 Plain Text
Заголовок : Full
Язык : English
Default : Нет
Forced : Нет

Меню
00:00:00.000 : :Chapter 01
00:01:39.098 : :Chapter 02
00:03:16.236 : :Chapter 03
00:07:23.526 : :Chapter 04
00:10:45.394 : :Chapter 05
00:17:03.021 : :Chapter 06
00:22:48.532 : :Chapter 07
00:28:36.047 : :Chapter 08
00:33:28.172 : :Chapter 09
00:38:21.674 : :Chapter 10
00:44:11.815 : :Chapter 11
00:48:26.820 : :Chapter 12
00:54:31.351 : :Chapter 13
01:02:09.016 : :Chapter 14
01:08:11.587 : :Chapter 15
01:14:36.847 : :Chapter 16
01:19:10.579 : :Chapter 17
01:25:39.759 : :Chapter 18
01:31:18.889 : :Chapter 19
01:37:33.805 : :Chapter 20
01:45:18.937 : :Chapter 21
01:50:25.118 : :Chapter 22
01:52:51.097 : :Chapter 23
01:55:14.198 : :Chapter 24
02:00:53.579 : :Chapter 25
02:04:31.255 : :Chapter 26

"x264 log"

x264 [info]: frame I:1415 Avg QP:12.36 size:163328
x264 [info]: frame P:41365 Avg QP:15.29 size: 32502
x264 [info]: frame B:136376 Avg QP:19.94 size: 5230

x264 [info]: consecutive B-frames: 4.1% 3.3% 8.7% 19.0% 16.7% 26.1% 12.2% 4.5% 2.3% 1.0% 1.0% 1.1%

x264 [info]: ref P L0: 40.6% 3.5% 14.3% 8.3% 6.1% 5.6% 4.4% 3.1% 2.6% 2.6% 2.2% 2.2% 2.0% 2.1% 0.5% 0.0%
x264 [info]: ref B L0: 57.0% 11.1% 8.1% 4.7% 4.1% 3.4% 3.0% 1.9% 1.8% 1.7% 1.6% 1.1% 0.6%
x264 [info]: ref B L1: 89.8% 10.2%


Ссылки для скачивания:

http//bt.hqclub.net/files/ok.png Торрент: Унесённые призраками / Spirited Away / Sen to Chihiro no kamikakushi (2001) BDRip-AVC

Лучшая онлайн игра!


Публикация материалов сайта на сторонних ресурсах возможна только в неизменном виде.


Обсудить релиз на форуме

Вас также может заинтересовать:


  • 5
 (Голосов: 2)


Распечатать новость на принтере Аниме, Мультфильм, Фэнтези, Приключения, Семейный

КОММЕНТАРИИ

 №1. ru4lan

Статус: Кинокритик | Новостей: 0 | Комментариев: 2736
ru4lan формат и размер кайф!
~~~

24.07.2014 - 00:01   цитировать