Вас Приветствует Релиз-группа HQCLUB


Помощь ресурсу, очень ВАЖНО!!!



.


WELCOME
Добро пожаловать в наше интернет - сообщество!

Всех нас объединяет одна страсть - страсть к высококачественному кино. А это наш сайт. Ежедневно здесь мы публикуем десятки качественных, свежих, а порой и эксклюзивных релизов, которые Вы можете скачать совершенно бесплатно и без каких-либо регистраций. Посему рекомендуем Вам добавить HQClub себе в закладки, а также подписаться на нашу ленту новостей, чтобы всегда быть в курсе всех событий. Ну а если Вы такой же синий фил, как и мы, то милости просим на наш форум. И в заключение, попробуйте зарегистрироваться, ведь не так это и сложно и займет всего лишь пару минут! Вот увидите, Вам у нас понравится и Вы вольетесь в наш дружный коллектив! Ну а пока - осматривайтесь = )
Мы рады Вам !





За облаками / The Place Promised in Our Early Days (Beyond the Clouds) / Kumo no muko, yakusoku no basho (2004) BDRip-AVC

Оформил: Elheym | 14 мая 2015 - 18:44:01 | Обращений: 1011 {bookmarks_news}

http//lostpic.net/orig_images/0/9/5/09bd4e43eda8ecfd1d212bed5105.jpg

Информация о фильме:
Название: За облаками
Оригинальное название: Kumo no mukô, yakusoku no basho
Год выхода: 2004
Жанр: аниме, мультфильм, фантастика, драма
Режиссер: Макото Синкай / Makoto Shinkai
В ролях: Хидэтака Ёсиока, Масато Хагивара, Юка Нанри, Уншо Ишизука, Казухико Иноэ, Риса Мидзуно, Хидэнобу, Киути, Масами Ивасаки, Эйдзи Такэмото, Такахиро Хирано

О фильме: Согласно альтернативному варианту развития истории, после поражения во второй мировой войне Япония оказалась разделённой между союзниками — северный остров Хоккайдо аннексировал Советский Союз, а Хонсю и другими южными островами овладели американцы.

Советы начали сооружать в своей зоне оккупации загадочное сооружение — башню столь исполинских размеров, что трое товарищей-старшеклассников с американского Хонсю, гуляющих вместе в пору школьных каникул, могли отчётливо видеть её контуры, возносящиеся в заоблочную высь. Друзья дали друг другу зарок, что однажды они построят аэроплан и раскроют секрет гигантской башни…

«Обещание юности»



http//rating.kinopoisk.ru/247926.gif http//tracker.0day.kiev.ua/imdb/imdb_tt03813.gif

Релиз от - http//hqclub.net/images/hqclub.png
Автор рипа: Elheym

Выпущено: Япония, CoMix Wave Inc.
Продолжительность: 01:30:20
Перевод: Профессиональный (полное дублирование)
Оригинальная аудиодорожка: японская
Субтитры: русские (полные, форсированные)
Главы: присутствуют, сохранены оригинальные

Файл:
Формат: MKV
Качество: BDRip-AVC (источник: http//i28.fastpic.ru/big/2011/1013/a8/a3d28e80c9544f4c572189fc892ea8.gif / Blu-ray Custom [The Place Promised in Our Early Days] / 1080p)
Видео: 1152x648 (16:9), 23.976 fps, MPEG-4 AVC, ~850 kbps avg, 0.047 bit/pixel
Аудио #1: 48 kHz, AC3 Dolby Digital, 3/2 (L,C,R,l,r) + LFE ch, ~448 kbps avg (DUB)
Аудио #2: 48 kHz, AC3 Dolby Digital, 3/2 (L,C,R,l,r) + LFE ch, ~448 kbps avg (JPN)
Размер: 1.10 GB
Сэмпл: скачать

http//lostpic.net/thumbs_images/8/5/f/85f901f71c31396e1df3fa99b0f7b154.png http//lostpic.net/thumbs_images/7/5/d/75d76de7a19dbfcddb0d5960958d9e.png http//lostpic.net/thumbs_images/3/7/5/3759441f5bc1a9f85f5a9cb323891274.png http//lostpic.net/thumbs_images/9/d/e/9ded10c7b99638e883310e522eb40389.png http//lostpic.net/thumbs_images/0/7/7/077173e291a8a2bd4cc9ee8928cb1d.png http//lostpic.net/thumbs_images/3/9/e/39ead7eca7d4f87b5b7155fdf26cd890.png

"MediaInfo"

Уникальный идентификатор : 243774449171280331858392104103727775135 (0xB765404A49C493159B455E6E07B2BD9F)
Полное имя : Beyond.the.Clouds.2004.DUAL.BDRip-AVC.x264.AC3.-HQCLUB.mkv
Формат : Matroska
Версия формата : Version 2
Размер файла : 1,10 Гбайт
Продолжительность : 1 ч. 30 м.
Общий поток : 1749 Кбит/сек
Название фильма : За облаками / The Place Promised in Our Early Days (Beyond the Clouds) / Kumo no muko, yakusoku no basho (2004) BDRip-AVC by HQCLUB [Elheym]
Дата кодирования : UTC 2015-05-14 14:06:43
Программа кодирования : mkvmerge v5.2.0 ('I can't explain') built on Dec 18 2011 18:12:03
Библиотека кодирования : libebml v1.2.3 + libmatroska v1.3.0
Attachements : Cover.png

Видео
Идентификатор : 1
Формат : AVC
Формат/Информация : Advanced Video Codec
Профиль формата : High@L4.0
Параметр CABAC формата : Да
Параметр ReFrames формата : 10 кадров
Идентификатор кодека : V_MPEG4/ISO/AVC
Продолжительность : 1 ч. 30 м.
Битрейт : 850 Кбит/сек
Ширина : 1152 пикселя
Высота : 648 пикселей
Соотношение сторон : 16:9
Режим частоты кадров : Постоянный
Частота кадров : 23,976 кадра/сек
Цветовое пространство : YUV
Субдискретизация насыщенности : 4:2:0
Битовая глубина : 8 бит
Тип развёртки : Прогрессивная
Бит/(Пиксели*Кадры) : 0.047
Размер потока : 529 Мбайт (47%)
Заголовок : За облаками / The Place Promised in Our Early Days (Beyond the Clouds) / Kumo no muko, yakusoku no basho (2004) BDRip-AVC by HQCLUB [Elheym]
Библиотека кодирования : x264 core 146 r2538kMod 121396c
Настройки программы : cabac=1 / ref=10 / deblock=1:-1:-1 / analyse=0x3:0x113 / me=umh / subme=11 / psy=1 / fade_compensate=0.00 / psy_rd=0.40:0.00 / mixed_ref=1 / me_range=32 / chroma_me=1 / trellis=2 / 8x8dct=1 / cqm=0 / deadzone=21,11 / fast_pskip=0 / chroma_qp_offset=-2 / threads=6 / lookahead_threads=2 / sliced_threads=0 / nr=0 / decimate=0 / interlaced=0 / bluray_compat=0 / constrained_intra=0 / fgo=0 / bframes=16 / b_pyramid=2 / b_adapt=2 / b_bias=0 / direct=3 / weightb=1 / open_gop=0 / weightp=2 / keyint=230 / keyint_min=23 / scenecut=40 / intra_refresh=0 / rc_lookahead=40 / rc=2pass / mbtree=0 / bitrate=850 / ratetol=1.0 / qcomp=0.70 / qpmin=0 / qpmax=69 / qpstep=4 / cplxblur=20.0 / qblur=0.5 / vbv_maxrate=20000 / vbv_bufsize=25000 / nal_hrd=none / filler=0 / ip_ratio=1.40 / pb_ratio=1.30 / aq=2:0.75
Язык : Japanese
Default : Да
Forced : Нет

Аудио #1
Идентификатор : 2
Формат : AC-3
Формат/Информация : Audio Coding 3
Расширение режима : CM (complete main)
Параметр Endianness формата : Big
Идентификатор кодека : A_AC3
Продолжительность : 1 ч. 30 м.
Вид битрейта : Постоянный
Битрейт : 448 Кбит/сек
Каналы : 6 каналов
Расположение каналов : Front: L C R, Side: L R, LFE
Частота : 48,0 КГц
Битовая глубина : 16 бит
Метод сжатия : С потерями
Размер потока : 289 Мбайт (26%)
Заголовок : АС3 5.1 @ 448 kbps - Dub
Язык : Russian
Default : Нет
Forced : Нет

Аудио #2
Идентификатор : 3
Формат : AC-3
Формат/Информация : Audio Coding 3
Расширение режима : CM (complete main)
Параметр Endianness формата : Big
Идентификатор кодека : A_AC3
Продолжительность : 1 ч. 30 м.
Вид битрейта : Постоянный
Битрейт : 448 Кбит/сек
Каналы : 6 каналов
Расположение каналов : Front: L C R, Side: L R, LFE
Частота : 48,0 КГц
Битовая глубина : 16 бит
Метод сжатия : С потерями
Размер потока : 289 Мбайт (26%)
Заголовок : АС3 5.1 @ 448 kbps - Original
Язык : Japanese
Default : Нет
Forced : Нет

Текст #1
Идентификатор : 4
Формат : UTF-8
Идентификатор кодека : S_TEXT/UTF8
Идентификатор кодека/Информация : UTF-8 Plain Text
Заголовок : Full
Язык : Russian
Default : Нет
Forced : Нет

Текст #2
Идентификатор : 5
Формат : UTF-8
Идентификатор кодека : S_TEXT/UTF8
Идентификатор кодека/Информация : UTF-8 Plain Text
Заголовок : Forced
Язык : Russian
Default : Нет
Forced : Нет

Меню
00:00:00.000 : :Chapter 01
00:01:42.936 : :Chapter 02
00:10:58.282 : :Chapter 03
00:14:03.843 : :Chapter 04
00:18:44.748 : :Chapter 05
00:21:42.926 : :Chapter 06
00:26:56.239 : :Chapter 07
00:32:44.796 : :Chapter 08
00:36:06.998 : :Chapter 09
00:42:15.533 : :Chapter 10
00:48:07.092 : :Chapter 11
00:50:28.025 : :Chapter 12
00:57:43.668 : :Chapter 13
01:02:50.975 : :Chapter 14
01:07:35.051 : :Chapter 15
01:14:44.688 : :Chapter 16
01:19:30.223 : :Chapter 17
01:25:24.953 : :Chapter 18
01:30:18.412 : :Chapter 19

"x264 log"

x264 [info]: frame I:1104 Avg QP:14.20 size: 79231
x264 [info]: frame P:25264 Avg QP:18.58 size: 9789
x264 [info]: frame B:103592 Avg QP:18.79 size: 2328

x264 [info]: consecutive B-frames: 2.6% 2.7% 5.6% 16.6% 16.5% 16.3% 10.9% 7.4% 3.2% 4.8% 1.6% 1.4% 1.6% 2.0% 1.4% 2.1% 3.2%

x264 [info]: ref P L0: 45.9% 3.1% 15.9% 10.9% 6.0% 5.9% 3.9% 3.3% 2.2% 2.6% 0.3% 0.0%
x264 [info]: ref B L0: 58.1% 14.5% 10.0% 5.3% 4.2% 2.9% 3.0% 1.4% 0.6%
x264 [info]: ref B L1: 86.9% 13.1%


Ссылки для скачивания:

http//bt.hqclub.net/files/ok.png Торрент: За облаками / The Place Promised in Our Early Days (Beyond the Clouds) / Kumo no muko, yakusoku no basho (2004) BDRip-AVC

Лучшая онлайн игра!


Публикация материалов сайта на сторонних ресурсах возможна только в неизменном виде.


Обсудить релиз на форуме

Вас также может заинтересовать:


  • 1
 (Голосов: 2)


Распечатать новость на принтере Аниме, Мультфильм, Фантастика, Драма