Вас Приветствует Релиз-группа HQCLUB


Помощь ресурсу, очень ВАЖНО!!!



.


WELCOME
Добро пожаловать в наше интернет - сообщество!

Всех нас объединяет одна страсть - страсть к высококачественному кино. А это наш сайт. Ежедневно здесь мы публикуем десятки качественных, свежих, а порой и эксклюзивных релизов, которые Вы можете скачать совершенно бесплатно и без каких-либо регистраций. Посему рекомендуем Вам добавить HQClub себе в закладки, а также подписаться на нашу ленту новостей, чтобы всегда быть в курсе всех событий. Ну а если Вы такой же синий фил, как и мы, то милости просим на наш форум. И в заключение, попробуйте зарегистрироваться, ведь не так это и сложно и займет всего лишь пару минут! Вот увидите, Вам у нас понравится и Вы вольетесь в наш дружный коллектив! Ну а пока - осматривайтесь = )
Мы рады Вам !





Халк против... / Hulk Vs. (2009) 720p BDRip

Оформил: DaniLch | 9 августа 2011 - 15:53:56 | Комментариев: 3 | Обращений: 2060 {bookmarks_news}

http//lostpic.net/images/5b478f0363a790633afa424c324e03.png

Название: Халк против...
Оригинальное название: Hulk Vs.
Год выхода: 2009
Жанр: мультфильм, боевик, фантастика, фэнтези
Режиссёр: Сэм Лью / Sam Liu, Фрэнк Пор / Frank Paur
Роли озвучивали: Марк Эчесон, Майкл Адамуэйт, Стивен Блум, Джей Бразо, Грэй ДеЛисл, Qayam Devji, Пол Добсон, Брайан Драммонд, Джонатан Холмс, Janyse Jaud

О фильме: Два короткометражных мультфильма от компании Marvel и Lionsgate, в которых рассказывается о новых похождениях невероятного Халка. В этот раз он сразится с Тором и Росомахой.

http//www.kinopoisk.ru/rating/432706.gif

Релиз от - http//hqclub.net/images/hqclub.png
Автор релиза: DaniLch

Выпущено: http//lostpic.net/images/ac5cb4a618da65239cf7be53b9ab78.gif США | Lionsgate, Marvel Studios
Продолжительность: 00:45:28 + 00:37:02

Источник: Blu-ray 1080p AVC DTS-HD 7.1 -HDCLUB
Контейнер: MKV
Видео: 1280x720 (1.78:1), 23.976 fps, x264@L4.1, 2pass, ~3200-3500 kbps
Аудио #1: Russian: 48 kHz/16-bit, DTS, 3/2 (L,C,R,l,r) + LFE ch, ~1536 kbps |Двухголосый закадровый, R5|
Аудио #2: Russian: 48 kHz, AC3 Dolby Digital, 3/2 (L,C,R,l,r) + LFE ch, ~448 kbps |Одноголосый закадровый, Ivnet Cinema|
Аудио #3: English: 48 kHz/24-bit, DTS, 3/2 (L,C,R,l,r) + LFE ch, ~1536 kbps
Субтитры: русские, английские
Размер: 2.11 Gb / 1.80 Gb

http//lostpic.net/thumbs/0e38f6267fc17468b04cf53a74e37bf2.png http//lostpic.net/thumbs/7eb3d7bafa5df4b6a87e8087dc896c.png http//lostpic.net/thumbs/73a2d4d985d1bb04e84f1a418ac651c2.png http//lostpic.net/thumbs/e45e15176dd568213e1fdc4f5bc4297b.png

http//bt.hqclub.net/files/ok.png Торрент: Халк против... / Hulk Vs. (2009) 720p BDRip

MediaInfo
General
Complete name : Halk.protiv.Tora.2009.BDRip.720p.H264.AC3.DTS.-HQCLUB.mkv
Format : Matroska
File size : 2.12 GiB
Duration : 45mn 28s
Overall bit rate : 6 670 Kbps
Movie name : 720p BDRip by DaniLch
Encoded date : UTC 2011-08-09 11:00:27
Writing application : mkvmerge v4.9.1 ('Ich will') built on Jul 11 2011 23:53:15
Writing library : libebml v1.2.1 + libmatroska v1.1.1

Video
ID : 1
Format : AVC
Format/Info : Advanced Video Codec
Format profile : High@L4.1
Format settings, CABAC : Yes
Format settings, ReFrames : 6 frames
Format settings, GOP : M=1, N=49
Codec ID : V_MPEG4/ISO/AVC
Duration : 45mn 28s
Bit rate : 3 200 Kbps
Width : 1 280 pixels
Height : 720 pixels
Display aspect ratio : 16:9
Frame rate : 23.976 fps
Color space : YUV
Chroma subsampling : 4:2:0
Bit depth : 8 bits
Scan type : Progressive
Bits/(Pixel*Frame) : 0.145
Stream size : 999 MiB (46%)
Title : Hulk vs. Thor (2009) 720p BDRip
Writing library : x264 core 115 r1995 c1e60b9
Encoding settings : cabac=1 / ref=6 / deblock=1:-2:-1 / analyse=0x3:0x113 / me=umh / subme=10 / psy=1 / psy_rd=1.00:0.00 / mixed_ref=1 / me_range=16 / chroma_me=1 / trellis=2 / 8x8dct=1 / cqm=0 / deadzone=21,11 / fast_pskip=0 / chroma_qp_offset=1 / threads=6 / sliced_threads=0 / nr=0 / decimate=1 / interlaced=0 / bluray_compat=0 / constrained_intra=0 / bframes=6 / b_pyramid=2 / b_adapt=2 / b_bias=0 / direct=3 / weightb=1 / open_gop=0 / weightp=2 / keyint=250 / keyint_min=23 / scenecut=40 / intra_refresh=0 / rc_lookahead=40 / rc=2pass / mbtree=1 / bitrate=3200 / ratetol=1.0 / qcomp=0.60 / qpmin=10 / qpmax=51 / qpstep=4 / cplxblur=20.0 / qblur=0.5 / vbv_maxrate=50000 / vbv_bufsize=62500 / nal_hrd=none / ip_ratio=1.40 / aq=1:0.80
Language : English
Color primaries : BT.709-5, BT.1361, IEC 61966-2-4, SMPTE RP177
Transfer characteristics : BT.709-5, BT.1361
Matrix coefficients : BT.709-5, BT.1361, IEC 61966-2-4 709, SMPTE RP177

Audio #1
ID : 2
Format : DTS
Format/Info : Digital Theater Systems
Codec ID : A_DTS
Duration : 45mn 28s
Bit rate mode : Constant
Bit rate : 1 510 Kbps
Channel(s) : 6 channels
Channel positions : Front: L C R, Side: L R, LFE
Sampling rate : 48.0 KHz
Bit depth : 16 bits
Compression mode : Lossy
Stream size : 491 MiB (23%)
Title : DTS 5.1 @ 1536 kbps - Двухголосый закадровый, R5
Language : Russian

Audio #2
ID : 3
Format : AC-3
Format/Info : Audio Coding 3
Mode extension : CM (complete main)
Codec ID : A_AC3
Duration : 45mn 28s
Bit rate mode : Constant
Bit rate : 448 Kbps
Channel(s) : 6 channels
Channel positions : Front: L C R, Side: L R, LFE
Sampling rate : 48.0 KHz
Bit depth : 16 bits
Compression mode : Lossy
Stream size : 146 MiB (7%)
Title : AC3 5.1 @ 448 kbps - Одноголосый закадровый, Ivnet Cinema
Language : Russian

Audio #3
ID : 4
Format : DTS
Format/Info : Digital Theater Systems
Codec ID : A_DTS
Duration : 45mn 28s
Bit rate mode : Constant
Bit rate : 1 510 Kbps
Channel(s) : 6 channels
Channel positions : Front: L C R, Side: L R, LFE
Sampling rate : 48.0 KHz
Bit depth : 24 bits
Compression mode : Lossy
Stream size : 491 MiB (23%)
Title : DTS 5.1 @ 1536 kbps
Language : English

Text #1
ID : 5
Format : UTF-8
Codec ID : S_TEXT/UTF8
Codec ID/Info : UTF-8 Plain Text
Language : Russian

Text #2
ID : 6
Format : UTF-8
Codec ID : S_TEXT/UTF8
Codec ID/Info : UTF-8 Plain Text
Language : English

Menu
00:00:00.000 : en:00:00:00.000
00:04:13.086 : en:00:04:13.086
00:10:17.492 : en:00:10:17.492
00:15:06.781 : en:00:15:06.781
00:20:57.256 : en:00:20:57.256
00:29:48.578 : en:00:29:48.578
00:37:05.265 : en:00:37:05.265
00:40:56.162 : en:00:40:56.162

--------------------------------

General
Complete name : Halk.protiv.Rosomahi.2009.BDRip.720p.H264.AC3.DTS.-HQCLUB.mkv
Format : Matroska
File size : 1.80 GiB
Duration : 37mn 2s
Overall bit rate : 6 971 Kbps
Movie name : 720p BDRip by DaniLch
Encoded date : UTC 2011-08-09 11:09:42
Writing application : mkvmerge v4.9.1 ('Ich will') built on Jul 11 2011 23:53:15
Writing library : libebml v1.2.1 + libmatroska v1.1.1

Video
ID : 1
Format : AVC
Format/Info : Advanced Video Codec
Format profile : High@L4.1
Format settings, CABAC : Yes
Format settings, ReFrames : 6 frames
Format settings, GOP : M=1, N=50
Codec ID : V_MPEG4/ISO/AVC
Duration : 37mn 2s
Bit rate : 3 500 Kbps
Width : 1 280 pixels
Height : 720 pixels
Display aspect ratio : 16:9
Frame rate : 23.976 fps
Color space : YUV
Chroma subsampling : 4:2:0
Bit depth : 8 bits
Scan type : Progressive
Bits/(Pixel*Frame) : 0.158
Stream size : 891 MiB (48%)
Title : Hulk vs. Wolverine (2009) 720p BDRip
Writing library : x264 core 115 r1995 c1e60b9
Encoding settings : cabac=1 / ref=6 / deblock=1:-2:-1 / analyse=0x3:0x113 / me=umh / subme=10 / psy=1 / psy_rd=1.00:0.00 / mixed_ref=1 / me_range=16 / chroma_me=1 / trellis=2 / 8x8dct=1 / cqm=0 / deadzone=21,11 / fast_pskip=0 / chroma_qp_offset=1 / threads=6 / sliced_threads=0 / nr=0 / decimate=1 / interlaced=0 / bluray_compat=0 / constrained_intra=0 / bframes=6 / b_pyramid=2 / b_adapt=2 / b_bias=0 / direct=3 / weightb=1 / open_gop=0 / weightp=2 / keyint=250 / keyint_min=23 / scenecut=40 / intra_refresh=0 / rc_lookahead=40 / rc=2pass / mbtree=1 / bitrate=3500 / ratetol=1.0 / qcomp=0.60 / qpmin=10 / qpmax=51 / qpstep=4 / cplxblur=20.0 / qblur=0.5 / vbv_maxrate=50000 / vbv_bufsize=62500 / nal_hrd=none / ip_ratio=1.40 / aq=1:0.70
Language : English
Color primaries : BT.709-5, BT.1361, IEC 61966-2-4, SMPTE RP177
Transfer characteristics : BT.709-5, BT.1361
Matrix coefficients : BT.709-5, BT.1361, IEC 61966-2-4 709, SMPTE RP177

Audio #1
ID : 2
Format : DTS
Format/Info : Digital Theater Systems
Codec ID : A_DTS
Duration : 37mn 2s
Bit rate mode : Constant
Bit rate : 1 510 Kbps
Channel(s) : 6 channels
Channel positions : Front: L C R, Side: L R, LFE
Sampling rate : 48.0 KHz
Bit depth : 16 bits
Compression mode : Lossy
Stream size : 400 MiB (22%)
Title : DTS 5.1 @ 1536 kbps - Двухголосый закадровый, R5
Language : Russian

Audio #2
ID : 3
Format : AC-3
Format/Info : Audio Coding 3
Mode extension : CM (complete main)
Codec ID : A_AC3
Duration : 37mn 2s
Bit rate mode : Constant
Bit rate : 448 Kbps
Channel(s) : 6 channels
Channel positions : Front: L C R, Side: L R, LFE
Sampling rate : 48.0 KHz
Bit depth : 16 bits
Compression mode : Lossy
Stream size : 119 MiB (6%)
Title : AC3 5.1 @ 448 kbps - Одноголосый закадровый, Ivnet Cinema
Language : Russian

Audio #3
ID : 4
Format : DTS
Format/Info : Digital Theater Systems
Codec ID : A_DTS
Duration : 37mn 2s
Bit rate mode : Constant
Bit rate : 1 510 Kbps
Channel(s) : 6 channels
Channel positions : Front: L C R, Side: L R, LFE
Sampling rate : 48.0 KHz
Bit depth : 24 bits
Compression mode : Lossy
Stream size : 400 MiB (22%)
Title : DTS 5.1 @ 1536 kbps
Language : English

Text #1
ID : 5
Format : UTF-8
Codec ID : S_TEXT/UTF8
Codec ID/Info : UTF-8 Plain Text
Language : Russian

Text #2
ID : 6
Format : UTF-8
Codec ID : S_TEXT/UTF8
Codec ID/Info : UTF-8 Plain Text
Language : English

Menu
00:00:00.000 : en:00:00:00.000
00:04:18.216 : en:00:04:18.216
00:07:26.237 : en:00:07:26.237
00:15:12.912 : en:00:15:12.912
00:20:14.171 : en:00:20:14.171
00:27:06.458 : en:00:27:06.458
00:33:58.745 : en:00:33:58.745


Лучшая онлайн игра!


Публикация материалов сайта на сторонних ресурсах возможна только в неизменном виде.


Обсудить релиз на форуме

Вас также может заинтересовать:


  • 4
 (Голосов: 3)


Распечатать новость на принтере Мультфильм, Боевик, Фантастика, Фэнтези

КОММЕНТАРИИ

 №1. Shokwel

Статус: Любитель | Новостей: 0 | Комментариев: 124
Shokwel Планета халка лудше
~~~

2.10.2011 - 22:10   цитировать  

 №2. Shokwel

Статус: Любитель | Новостей: 0 | Комментариев: 124
Shokwel но и этот неплох
~~~

2.10.2011 - 22:11   цитировать  

 №3. Shokwel

Статус: Любитель | Новостей: 0 | Комментариев: 124
Shokwel советую
~~~

2.10.2011 - 22:11   цитировать