Вас Приветствует Релиз-группа HQCLUB


Помощь ресурсу, очень ВАЖНО!!!



.


WELCOME
Добро пожаловать в наше интернет - сообщество!

Всех нас объединяет одна страсть - страсть к высококачественному кино. А это наш сайт. Ежедневно здесь мы публикуем десятки качественных, свежих, а порой и эксклюзивных релизов, которые Вы можете скачать совершенно бесплатно и без каких-либо регистраций. Посему рекомендуем Вам добавить HQClub себе в закладки, а также подписаться на нашу ленту новостей, чтобы всегда быть в курсе всех событий. Ну а если Вы такой же синий фил, как и мы, то милости просим на наш форум. И в заключение, попробуйте зарегистрироваться, ведь не так это и сложно и займет всего лишь пару минут! Вот увидите, Вам у нас понравится и Вы вольетесь в наш дружный коллектив! Ну а пока - осматривайтесь = )
Мы рады Вам !





Ледниковый период 2: Глобальное потепление / Ice Age: The Meltdown (2006) 720p BDRip

Оформил: DaniLch | 12 июля 2011 - 13:21:34 | Комментариев: 2 | Обращений: 1691 {bookmarks_news}

http//lostpic.net/images/d964e2f04196317ced608bdaa6f5ca.png

Название: Ледниковый период 2: Глобальное потепление
Оригинальное название: Ice Age: The Meltdown
Год выхода: 2006
Жанр: мультфильм, приключения, комедия, фэнтези, мелодрама, семейный
Режиссёр: Карлос Салдана / Carlos Saldanha
Роли озвучивали: Рэй Романо, Джон Легуизамо, Денис Лири, Шонн Уильям Скотт, Джош Пек, Куин Латифа, Уилл Арнетт, Джей Лено, Крис Уэдж, Питер Экерман

О фильме: Саблезубый тигр Диего, мамонт Манфред, грызун Скрэт и ленивец Сид дожили до глобального потепления. С одной стороны, это круто — ледяная пустыня превратилась в настоящий аквапарк, где можно принимать теплые ванны и резвиться под сенью струй. С другой — не очень: стремительный паводок идет прямиком к их родной долине.

Теперь ответственным животным придется спасать соседей от потопа, что довольно проблематично — строить ковчег совершенно не из чего, кроме как из талого снега. Но не беспокойтесь — эвакуация разнообразной живности в сухое место пройдет не менее суетливо, смешно и успешно, чем и прошлая операция по возвращению человеческого детеныша в лоно семьи.

http//www.kinopoisk.ru/rating/86204.gif

Релиз от - http//hqclub.net/images/hqclub.png
Автор релиза: DaniLch

Выпущено: http//lostpic.net/images/ac5cb4a618da65239cf7be53b9ab78.gif США | 20th Century Fox Animation
Продолжительность: 01:30:36

Рип от HiDt

Формат: MKV
Видео: 1280x690 (1.85:1), 23.976 fps, x264@L4.1, 2pass, ~4782 kbps
Аудио #1: Russian: 48 kHz/24-bit, DTS, 3/2 (L,C,R,l,r) + LFE ch, ~768 kbps |Дубляж, Blu-ray CEE|
Аудио #2: English: 48 kHz/24-bit, DTS, 3/2 (L,C,R,l,r) + LFE ch, ~1536 kbps
Субтитры: русские, английские
Размер: 4.47 GB

http//lostpic.net/thumbs/d736834dd7bc513efc759f793f9ff6.png http//lostpic.net/thumbs/22bf46f14e2c01d9da095bb121da465b.png http//lostpic.net/thumbs/310c4f9fc895bff15321ea90cc8b1f3a.png http//lostpic.net/thumbs/47acdca34026e226e9bc827ac1b73a8c.png

http//bt.hqclub.net/files/ok.png Торрент: Ледниковый период 2: Глобальное потепление / Ice Age: The Meltdown (2006) 720p BDRip

MediaInfo
General
Complete name : Lednikovyj.period.2.2006.BDRip.720p.H264.DTS.-HQCLUB.mkv
Format : Matroska
File size : 4.47 GiB
Duration : 1h 31mn
Overall bit rate : 7 030 Kbps
Movie name : 720p BDRip by HiDt
Encoded date : UTC 2011-06-18 19:25:59
Writing application : mkvmerge v4.8.0 ('I Got The...') built on May 24 2011 03:12:58
Writing library : libebml v1.2.0 + libmatroska v1.1.0

Video
ID : 1
Format : AVC
Format/Info : Advanced Video Codec
Format profile : High@L4.1
Format settings, CABAC : Yes
Format settings, ReFrames : 8 frames
Codec ID : V_MPEG4/ISO/AVC
Duration : 1h 31mn
Bit rate : 4 782 Kbps
Width : 1 280 pixels
Height : 690 pixels
Display aspect ratio : 1.855
Frame rate : 23.976 fps
Color space : YUV
Chroma subsampling : 4:2:0
Bit depth : 8 bits
Scan type : Progressive
Bits/(Pixel*Frame) : 0.226
Stream size : 2.94 GiB (66%)
Title : Ледниковый период 2: Глобальное потепление / Ice Age: The Meltdown (2006)
Writing library : x264 core 77 r1292 e381f6d
Encoding settings : cabac=1 / ref=8 / deblock=1:-3:-3 / analyse=0x3:0x113 / me=tesa / subme=10 / psy=1 / psy_rd=0.9:0.0 / mixed_ref=1 / me_range=32 / chroma_me=1 / trellis=2 / 8x8dct=1 / cqm=0 / deadzone=21,11 / chroma_qp_offset=-2 / threads=6 / nr=0 / decimate=0 / mbaff=0 / constrained_intra=0 / bframes=9 / b_pyramid=1 / b_adapt=2 / b_bias=0 / direct=3 / wpredb=1 / keyint=250 / keyint_min=25 / scenecut=40 / rc=2pass / mbtree=0 / bitrate=4782 / ratetol=1.0 / qcomp=0.60 / qpmin=10 / qpmax=51 / qpstep=4 / cplxblur=20.0 / qblur=0.5 / ip_ratio=1.40 / pb_ratio=1.30 / aq=1:0.80
Language : English

Audio #1
ID : 2
Format : DTS
Format/Info : Digital Theater Systems
Codec ID : A_DTS
Duration : 1h 31mn
Bit rate mode : Constant
Bit rate : 755 Kbps
Channel(s) : 6 channels
Channel positions : Front: L C R, Side: L R, LFE
Sampling rate : 48.0 KHz
Bit depth : 24 bits
Compression mode : Lossy
Stream size : 492 MiB (11%)
Title : DTS 5.1 @ 768 kbps - Дубляж
Language : Russian

Audio #2
ID : 3
Format : DTS
Format/Info : Digital Theater Systems
Codec ID : A_DTS
Duration : 1h 31mn
Bit rate mode : Constant
Bit rate : 1 510 Kbps
Channel(s) : 6 channels
Channel positions : Front: L C R, Side: L R, LFE
Sampling rate : 48.0 KHz
Bit depth : 24 bits
Compression mode : Lossy
Stream size : 984 MiB (21%)
Title : DTS 5.1 @ 1536 kbps
Language : English

Text #1
ID : 4
Format : UTF-8
Codec ID : S_TEXT/UTF8
Codec ID/Info : UTF-8 Plain Text
Language : Russian

Text #2
ID : 5
Format : UTF-8
Codec ID : S_TEXT/UTF8
Codec ID/Info : UTF-8 Plain Text
Language : English

Menu
00:00:00.000 : en:00:00:00.000
00:06:19.296 : en:00:06:19.296
00:07:42.671 : en:00:07:42.671
00:10:45.395 : en:00:10:45.395
00:15:23.256 : en:00:15:23.256
00:17:42.937 : en:00:17:42.937
00:19:23.162 : en:00:19:23.162
00:21:40.925 : en:00:21:40.925
00:23:14.268 : en:00:23:14.268
00:27:11.839 : en:00:27:11.839
00:30:32.247 : en:00:30:32.247
00:35:44.809 : en:00:35:44.809
00:38:48.660 : en:00:38:48.660
00:42:26.753 : en:00:42:26.753
00:45:49.705 : en:00:45:49.705
00:47:44.653 : en:00:47:44.653
00:50:17.681 : en:00:50:17.681
00:54:04.491 : en:00:54:04.491
00:58:59.244 : en:00:58:59.244
01:01:06.788 : en:01:01:06.788
01:05:11.116 : en:01:05:11.116
01:10:38.025 : en:01:10:38.025
01:20:55.476 : en:01:20:55.476
01:23:34.635 : en:01:23:34.635


Лучшая онлайн игра!


Публикация материалов сайта на сторонних ресурсах возможна только в неизменном виде.


Обсудить релиз на форуме

Вас также может заинтересовать:


  • 4
 (Голосов: 13)


Распечатать новость на принтере Мультфильм, Приключения, Комедия, Фэнтези, Мелодрама, Семейный

КОММЕНТАРИИ

 №1. ru4lan

Статус: Кинокритик | Новостей: 0 | Комментариев: 2736
ru4lan хорошая вешь
~~~

7.06.2012 - 15:41   цитировать  

 №2. ru4lan

Статус: Кинокритик | Новостей: 0 | Комментариев: 2736
ru4lan скачал для коллекции
~~~

7.06.2012 - 15:41   цитировать