Вас Приветствует Релиз-группа HQCLUB


Помощь ресурсу, очень ВАЖНО!!!



.


WELCOME
Добро пожаловать в наше интернет - сообщество!

Всех нас объединяет одна страсть - страсть к высококачественному кино. А это наш сайт. Ежедневно здесь мы публикуем десятки качественных, свежих, а порой и эксклюзивных релизов, которые Вы можете скачать совершенно бесплатно и без каких-либо регистраций. Посему рекомендуем Вам добавить HQClub себе в закладки, а также подписаться на нашу ленту новостей, чтобы всегда быть в курсе всех событий. Ну а если Вы такой же синий фил, как и мы, то милости просим на наш форум. И в заключение, попробуйте зарегистрироваться, ведь не так это и сложно и займет всего лишь пару минут! Вот увидите, Вам у нас понравится и Вы вольетесь в наш дружный коллектив! Ну а пока - осматривайтесь = )
Мы рады Вам !





Зелёный Фонарь: Изумрудные рыцари / Green Lantern: Emerald Knights (2011) 720p BDRip

Оформил: DaniLch | 10 августа 2011 - 20:35:53 | Комментариев: 4 | Обращений: 2989 {bookmarks_news}

http//lostpic.net/images/6105a11a984b928afa51993fa6d923cd.png

Название: Зелёный Фонарь: Изумрудные рыцари
Оригинальное название: Green Lantern: Emerald Knights
Год выхода: 2011
Жанр: мультфильм, фантастика, фэнтези, боевик, приключения
Режиссер: Крис Беркли, Лоурен Монтгомери, Джей Олива
Роли озвучивали: Натан Филлион, Джейсон Айзекс, Элизабет Мосс, Генри Роллинз, Арнольд Вослу, Тони Амендола, Стивен Блум, Грэй ДеЛисл, Келли Ху, Майкл Джексон

О фильме: Этот полнометражный анимационный фильм по Вселенной DC Comics открывает нам богатую мифологию мира Зеленого Фонаря в шести взаимосвязанных эпизодах. Ожидая сражения с Кроной, древним врагом Стражей Вселенной, Зеленые Фонари Земли: Хэл Джордан, Килавог, Синестро и другие бойцы Корпуса Зеленых Фонарей рассказывают новичку-рекруту Арисии о своих былых приключениях — от истории о Первом Фонаре до зловещих событий, которые привели к Самой Черной Ночи Корпуса!

http//www.kinopoisk.ru/rating/544794.gif

Релиз от - http//hqclub.net/images/hqclub.png
Автор релиза: DaniLch

Выпущено: http//lostpic.net/images/ac5cb4a618da65239cf7be53b9ab78.gif США | DC Entertainment, Warner Bros. Animation
Продолжительность: 01:23:40

Источник: Blu-ray 1080p AVC DTS-HD MA 5.1 -CtrlHD
Контейнер: MKV
Видео: 1280x720 (1.78:1), 23.976 fps, x264@L4.1, crf, ~3189 kbps
Аудио #1: Russian: 48 kHz, AC3 Dolby Digital, 2/0 (L,R) ch, ~192 kbps |Дубляж|
Аудио #2: English: 48 kHz/24-bit, DTS, 3/2 (L,C,R,l,r) + LFE ch, ~1536 kbps
Субтитры: русские, английские
Размер: 2.91 Gb

http//lostpic.net/thumbs/3039c5bc563a96badfeee40d4f227204.png http//lostpic.net/thumbs/c87f2b22f42e3e219be89b0a74ae43d1.png http//lostpic.net/thumbs/d02b6bbb3886225851834bb2617dc7.png http//lostpic.net/thumbs/ff1275ff8b5f22e3696150b9397d9f.png

http//bt.hqclub.net/files/ok.png Торрент: Зелёный Фонарь: Изумрудные рыцари / Green Lantern: Emerald Knights (2011) 720p BDRip

MediaInfo
General
Complete name : Zelenyj.Fonar.Izumrudnye.rycari.2011.BDRip.720p.H264.AC3.DTS.-HQCLUB.mkv
Format : Matroska
File size : 2.92 GiB
Duration : 1h 23mn
Overall bit rate : 4 990 Kbps
Movie name : 720p BDRip by DaniLch
Encoded date : UTC 2011-08-10 08:47:28
Writing application : mkvmerge v4.9.1 ('Ich will') built on Jul 11 2011 23:53:15
Writing library : libebml v1.2.1 + libmatroska v1.1.1

Video
ID : 1
Format : AVC
Format/Info : Advanced Video Codec
Format profile : High@L4.1
Format settings, CABAC : Yes
Format settings, ReFrames : 7 frames
Codec ID : V_MPEG4/ISO/AVC
Duration : 1h 23mn
Bit rate : 3 189 Kbps
Width : 1 280 pixels
Height : 720 pixels
Display aspect ratio : 16:9
Frame rate : 23.976 fps
Color space : YUV
Chroma subsampling : 4:2:0
Bit depth : 8 bits
Scan type : Progressive
Bits/(Pixel*Frame) : 0.144
Stream size : 1.86 GiB (64%)
Title : Green Lantern: Emerald Knights (2011) 720p BDRip
Writing library : x264 core 115 r1995 c1e60b9
Encoding settings : cabac=1 / ref=7 / deblock=1:-2:-2 / analyse=0x3:0x113 / me=umh / subme=10 / psy=1 / psy_rd=0.90:0.00 / mixed_ref=1 / me_range=32 / chroma_me=1 / trellis=2 / 8x8dct=1 / cqm=0 / deadzone=21,11 / fast_pskip=0 / chroma_qp_offset=1 / threads=6 / sliced_threads=0 / nr=0 / decimate=1 / interlaced=0 / bluray_compat=0 / constrained_intra=0 / bframes=6 / b_pyramid=2 / b_adapt=2 / b_bias=0 / direct=3 / weightb=1 / open_gop=0 / weightp=2 / keyint=250 / keyint_min=23 / scenecut=40 / intra_refresh=0 / rc_lookahead=40 / rc=crf / mbtree=0 / crf=15.6 / qcomp=0.60 / qpmin=10 / qpmax=51 / qpstep=4 / vbv_maxrate=50000 / vbv_bufsize=62500 / crf_max=0.0 / nal_hrd=none / ip_ratio=1.40 / pb_ratio=1.30 / aq=1:1.00
Language : English

Audio #1
ID : 2
Format : AC-3
Format/Info : Audio Coding 3
Format profile : Dolby Digital
Mode extension : CM (complete main)
Codec ID : A_AC3
Duration : 1h 23mn
Bit rate mode : Constant
Bit rate : 192 Kbps
Channel(s) : 2 channels
Channel positions : Front: L R
Sampling rate : 48.0 KHz
Bit depth : 16 bits
Compression mode : Lossy
Stream size : 115 MiB (4%)
Title : AC3 2.0 @ 192 kbps - Дубляж
Language : Russian

Audio #2
ID : 3
Format : DTS
Format/Info : Digital Theater Systems
Codec ID : A_DTS
Duration : 1h 23mn
Bit rate mode : Constant
Bit rate : 1 510 Kbps
Channel(s) : 6 channels
Channel positions : Front: L C R, Side: L R, LFE
Sampling rate : 48.0 KHz
Bit depth : 24 bits
Compression mode : Lossy
Stream size : 904 MiB (30%)
Title : DTS 5.1 @ 1536 kbps
Language : English

Text #1
ID : 4
Format : UTF-8
Codec ID : S_TEXT/UTF8
Codec ID/Info : UTF-8 Plain Text
Language : Russian

Text #2
ID : 5
Format : UTF-8
Codec ID : S_TEXT/UTF8
Codec ID/Info : UTF-8 Plain Text
Language : English

Menu
00:00:00.000 : en:Chapter 1
00:01:51.319 : en:Chapter 2
00:02:10.547 : en:Chapter 3
00:09:40.121 : en:Chapter 4
00:19:49.605 : en:Chapter 5
00:31:22.380 : en:Chapter 6
00:42:54.488 : en:Chapter 7
00:53:20.822 : en:Chapter 8
01:04:43.921 : en:Chapter 9
01:18:33.333 : en:Chapter 10
01:20:02.631 : en:Chapter 11


Лучшая онлайн игра!


Публикация материалов сайта на сторонних ресурсах возможна только в неизменном виде.


Обсудить релиз на форуме

Вас также может заинтересовать:


  • 4
 (Голосов: 3)


Распечатать новость на принтере Мультфильм, Анимационный, Боевик, Фантастика, Фэнтези, Приключения
Обновлено: 12.08.2011 - 17:30

КОММЕНТАРИИ

 №1. Tayson

Статус: Кинокритик | Новостей: 0 | Комментариев: 375
Tayson HQCLUB, а фильм где???
~~~

21.08.2011 - 14:25   цитировать  

 №2. SerB_777

Статус: Кинокритик | Новостей: 0 | Комментариев: 583
SerB_777 Релиз фильма на Blu-ray только 15 декабря 2011 года (инфа на КиноПоиске). Подождем.
~~~

22.09.2011 - 02:29   цитировать  

 №3. Shokwel

Статус: Любитель | Новостей: 0 | Комментариев: 124
Shokwel а может он и раньше выйдет все всегда раньше блюреи выходят!
~~~

2.10.2011 - 22:07   цитировать  

 №4. Shokwel

Статус: Любитель | Новостей: 0 | Комментариев: 124
Shokwel жду обязательно посатрю
~~~

2.10.2011 - 22:07   цитировать