Вас Приветствует Релиз-группа HQCLUB


Помощь ресурсу, очень ВАЖНО!!!



.


WELCOME
Добро пожаловать в наше интернет - сообщество!

Всех нас объединяет одна страсть - страсть к высококачественному кино. А это наш сайт. Ежедневно здесь мы публикуем десятки качественных, свежих, а порой и эксклюзивных релизов, которые Вы можете скачать совершенно бесплатно и без каких-либо регистраций. Посему рекомендуем Вам добавить HQClub себе в закладки, а также подписаться на нашу ленту новостей, чтобы всегда быть в курсе всех событий. Ну а если Вы такой же синий фил, как и мы, то милости просим на наш форум. И в заключение, попробуйте зарегистрироваться, ведь не так это и сложно и займет всего лишь пару минут! Вот увидите, Вам у нас понравится и Вы вольетесь в наш дружный коллектив! Ну а пока - осматривайтесь = )
Мы рады Вам !





Ледниковый период 3: Эра динозавров / Ice Age: Dawn of the Dinosaurs (2009) 720p BDRip

Оформил: DaniLch | 14 июля 2011 - 20:16:27 | Обращений: 2206 {bookmarks_news}

http//lostpic.net/images/ec0795963e3ee86f25ec7bbf09526062.png

Название: Ледниковый период 3: Эра динозавров
Оригинальное название: Ice Age: Dawn of the Dinosaurs
Год выхода: 2009
Жанр: мультфильм, приключения, комедия, семейный
Режиссёр: Карлос Салдана / Carlos Saldanha, Майк Трумейер / Mike Thurmeier
Роли озвучивали: Рэй Романо, Джон Легуизамо, Саймон Пегг, Куин Латифа, Шонн Уильям Скотт, Джош Пек, Денис Лири, Крис Уэдж, Юнис Чо, Карен Дишер

О фильме: К событиям «Ледникового периода 3» жизнь главных героев мультфильма потерпела некоторые изменения. Мамонты Манфред и Элли ожидают появление на свет своего детёныша; саблезубый тигр Диего впал в раздумье о том, не стал ли он слишком «мягкотелым» в компании своих друзей; ленивец Сид, бредя желанием создать собственное племя, решился украсть несколько яиц динозавра. Отправившись спасать Сида, друзья попадают в таинственный растительный мир, скрытый под толщами льда, где они сталкиваются с динозаврами и агрессивной окружающей средой, а также знакомятся с охотником на динозавров — лаской по имени Бак.

Крысобелка Скрэт (который вновь случайным образом стал виной глобальной проблемы, открыв путь в мир динозавров) по-прежнему гоняется за своим орехом, но на этот раз у него появился конкурент — крысобелка Скрэтти, однако, одновременно с одержимой борьбой за орех, эти двое влюбляются друг в друга.

http//www.kinopoisk.ru/rating/392930.gif

Релиз от - http//hqclub.net/images/hqclub.png
Автор релиза: DaniLch

Выпущено: http//lostpic.net/images/ac5cb4a618da65239cf7be53b9ab78.gif США | 20th Century Fox Animation
Продолжительность: 01:34:03

Рип от HiDt

Формат: MKV
Видео: 1280x690 (1.85:1), 23.976 fps, x264@L4.1, 2pass, ~5122 kbps
Аудио #1: Russian: 48 kHz/24-bit, DTS, 3/2 (L,C,R,l,r) + LFE ch, ~768 kbps |Дубляж, Blu-ray CEE|
Аудио #2: English: 48 kHz/24-bit, DTS-ES, 3/2 (L,C,R,l,r) + LFE ch, ~1536 kbps
Субтитры: русские, английские
Размер: 4.86 GB

http//lostpic.net/thumbs/5a7dbe1704a1647bd7ebb2febf.png http//lostpic.net/thumbs/e7f567c59bef89de4b30efccead6f3a0.png http//lostpic.net/thumbs/2ebdec064e58d55ba1be5d663b1a2d.png http//lostpic.net/thumbs/a913ddd0a84ffc708ad7639f4ae00f74.png

http//bt.hqclub.net/files/ok.png Торрент: Ледниковый период 3: Эра динозавров / Ice Age: Dawn of the Dinosaurs (2009) 720p BDRip

MediaInfo
General
Complete name : Lednikovyj.period.3.2009.BDRip.720p.H264.DTS.-HQCLUB.mkv
Format : Matroska
File size : 4.86 GiB
Duration : 1h 34mn
Overall bit rate : 7 402 Kbps
Movie name : 720p BDRip by HiDt
Encoded date : UTC 2011-07-13 07:16:24
Writing application : mkvmerge v4.8.0 ('I Got The...') built on May 24 2011 03:12:58
Writing library : libebml v1.2.0 + libmatroska v1.1.0

Video
ID : 1
Format : AVC
Format/Info : Advanced Video Codec
Format profile : High@L4.1
Format settings, CABAC : Yes
Format settings, ReFrames : 8 frames
Format settings, GOP : N=1
Codec ID : V_MPEG4/ISO/AVC
Duration : 1h 34mn
Bit rate : 5 122 Kbps
Width : 1 280 pixels
Height : 690 pixels
Display aspect ratio : 1.855
Frame rate : 23.976 fps
Color space : YUV
Chroma subsampling : 4:2:0
Bit depth : 8 bits
Scan type : Progressive
Bits/(Pixel*Frame) : 0.242
Stream size : 3.28 GiB (67%)
Title : Ледниковый период 3: Эра динозавров / Ice Age: Dawn of the Dinosaurs (2009)
Writing library : x264 core 76 r1271 496d79d
Encoding settings : cabac=1 / ref=8 / deblock=1:-3:-3 / analyse=0x3:0x113 / me=tesa / subme=10 / psy=1 / psy_rd=1.0:0.0 / mixed_ref=1 / me_range=32 / chroma_me=1 / trellis=2 / 8x8dct=1 / cqm=0 / deadzone=21,11 / chroma_qp_offset=-2 / threads=6 / nr=0 / decimate=0 / mbaff=0 / bframes=6 / b_pyramid=0 / b_adapt=2 / b_bias=0 / direct=3 / wpredb=1 / keyint=250 / keyint_min=25 / scenecut=40 / rc_lookahead=40 / rc=2pass / mbtree=1 / bitrate=5122 / ratetol=1.0 / qcomp=0.60 / qpmin=10 / qpmax=51 / qpstep=4 / cplxblur=20.0 / qblur=0.5 / ip_ratio=1.40 / aq=1:0.80
Language : English

Audio #1
ID : 2
Format : DTS
Format/Info : Digital Theater Systems
Codec ID : A_DTS
Duration : 1h 34mn
Bit rate mode : Constant
Bit rate : 755 Kbps
Channel(s) : 6 channels
Channel positions : Front: L C R, Side: L R, LFE
Sampling rate : 48.0 KHz
Bit depth : 24 bits
Compression mode : Lossy
Stream size : 508 MiB (10%)
Title : DTS 5.1 @ 768 kbps - Дубляж
Language : Russian

Audio #2
ID : 3
Format : DTS
Format/Info : Digital Theater Systems
Format profile : ES
Codec ID : A_DTS
Duration : 1h 34mn
Bit rate mode : Constant
Bit rate : 1 510 Kbps
Channel(s) : 6 channels
Channel positions : Front: L C R, Side: L R, LFE
Sampling rate : 48.0 KHz
Bit depth : 24 bits
Compression mode : Lossy
Stream size : 1 016 MiB (20%)
Title : DTS-ES 5.1 @ 1536 kbps
Language : English

Text #1
ID : 4
Format : UTF-8
Codec ID : S_TEXT/UTF8
Codec ID/Info : UTF-8 Plain Text
Language : Russian

Text #2
ID : 5
Format : UTF-8
Codec ID : S_TEXT/UTF8
Codec ID/Info : UTF-8 Plain Text
Language : English

Menu
00:00:00.000 : en:00:00:00.000
00:03:10.816 : en:00:03:10.816
00:10:38.847 : en:00:10:38.847
00:16:05.631 : en:00:16:05.631
00:20:00.449 : en:00:20:00.449
00:24:07.655 : en:00:24:07.655
00:27:29.648 : en:00:27:29.648
00:31:47.572 : en:00:31:47.572
00:36:10.668 : en:00:36:10.668
00:41:11.594 : en:00:41:11.594
00:48:29.073 : en:00:48:29.073
00:50:46.335 : en:00:50:46.335
00:57:03.003 : en:00:57:03.003
00:58:06.149 : en:00:58:06.149
01:03:11.287 : en:01:03:11.287
01:08:05.039 : en:01:08:05.039
01:11:37.043 : en:01:11:37.043
01:16:00.306 : en:01:16:00.306
01:21:05.069 : en:01:21:05.069
01:26:50.122 : en:01:26:50.122


Лучшая онлайн игра!


Публикация материалов сайта на сторонних ресурсах возможна только в неизменном виде.


Обсудить релиз на форуме

Вас также может заинтересовать:


  • 4
 (Голосов: 12)


Распечатать новость на принтере Мультфильм, Анимационный, Приключения, Комедия, Семейный